VERSION	0.00.00	1.03.00
FES_MODE	0
BPM_DEF	151.000	151.000	151.000	151.000
MET_DEF	4	4
RESOLUTION	384
CLK_DEF	384
COMPATIBLE_CODE	MA2

BPM	0	0	151.000
MET	0	0	4	4

HLD	2	0	2	384
HLD	3	0	3	384
HLD	4	0	4	384
TAP	5	0	5
TAP	5	192	4
TAP	5	192	5
HLD	6	0	3	576
HLD	7	0	4	192
HLD	8	0	2	192
HLD	8	0	5	192
HLD	9	0	1	192
HLD	9	0	6	192
BST	10	0	0
SCR	10	0	0	96	480	7
HLD	12	0	0	192
HLD	12	192	7	192
TAP	13	0	0
XTP	13	192	1
XTP	13	192	6
TAP	14	0	2
TAP	14	96	2
TAP	14	192	2
TAP	14	192	3
TAP	15	0	5
TAP	15	96	5
TAP	15	192	4
TAP	15	192	5
TAP	16	0	6
TAP	16	96	6
TAP	16	192	6
TAP	16	192	7
TAP	17	0	0
TAP	17	0	7
TAP	17	192	1
TAP	17	192	6
STR	18	0	2
SI_	18	0	2	96	288	5
TAP	19	192	6
STR	20	0	6
SI_	20	0	6	96	288	2
TAP	21	192	1
STR	22	0	0
SI_	22	0	0	96	288	3
TAP	23	192	4
STR	24	0	4
SI_	24	0	4	96	288	0
XTP	25	192	1
XTP	25	192	7
TAP	26	0	2
TAP	26	96	2
TAP	26	192	3
TAP	27	0	4
TAP	27	96	4
TAP	27	192	5
TAP	28	0	6
TAP	28	96	6
TAP	28	192	7
TAP	28	288	7
TAP	29	0	0
TAP	29	96	0
TAP	29	192	0
TAP	29	192	7
TAP	30	0	1
TAP	30	96	1
TAP	30	192	0
TAP	31	0	7
TAP	31	96	7
TAP	31	192	6
TAP	32	0	5
TAP	32	96	5
TAP	32	192	4
TAP	32	288	4
TAP	33	0	3
TAP	33	96	3
TAP	33	192	2
TAP	33	192	4
TTP	34	0	3	B	0	L1
TTP	34	192	1	B	0	L1
TTP	34	192	2	E	0	L1
TTP	35	0	4	B	0	L1
TTP	35	192	6	B	0	L1
TTP	35	192	6	E	0	L1
TTP	36	0	4	E	0	L1
TTP	36	192	3	E	0	L1
TTP	36	192	5	E	0	L1
TTP	37	0	2	E	0	L1
TTP	37	0	6	E	0	L1
TTP	37	192	0	C	0	L1
TTP	38	0	5	B	0	L1
TTP	38	192	7	B	0	L1
TTP	38	192	7	E	0	L1
TTP	39	0	2	B	0	L1
TTP	39	192	0	B	0	L1
TTP	39	192	1	E	0	L1
TTP	40	0	6	E	0	L1
TTP	40	96	5	B	0	L1
TTP	40	192	4	B	0	L1
TTP	40	288	4	E	0	L1
TTP	41	0	3	B	0	L1
TTP	41	96	2	B	0	L1
TTP	41	192	2	E	0	L1
TTP	42	0	6	B	0	L1
TTP	42	0	7	E	0	L1
TTP	42	192	1	B	0	L1
TTP	42	192	1	E	0	L1
THO	43	0	0	192	C	1	L1
TAP	44	0	0
TAP	44	96	1
TAP	44	192	2
TAP	44	192	3
TAP	44	288	2
TAP	44	288	3
TAP	45	0	4
TAP	45	96	5
TAP	45	192	3
TAP	45	192	6
TAP	46	0	7
TAP	46	96	6
TAP	46	192	4
TAP	46	192	5
TAP	46	288	4
TAP	46	288	5
TAP	47	0	3
TAP	47	96	2
BRK	47	192	1
BRK	47	192	4
HLD	48	0	1	96
TAP	48	96	0
TAP	48	192	2
TAP	48	192	7
TAP	48	288	2
TAP	48	288	7
HLD	49	0	6	96
TAP	49	96	7
TAP	49	192	0
TAP	49	192	5
HLD	50	0	6	96
HLD	50	0	7	96
HLD	50	192	0	96
HLD	50	192	1	96
TAP	51	0	0
TAP	51	0	7
TAP	51	96	1
TAP	51	96	6
TAP	51	192	2
TAP	51	192	5
XTP	51	288	2
XTP	51	288	5
TAP	52	0	3
TAP	52	96	2
TAP	52	192	0
TAP	52	192	1
TAP	52	288	0
TAP	52	288	1
TAP	53	0	7
TAP	53	96	6
TAP	53	192	0
TAP	53	192	5
TAP	54	0	4
TAP	54	96	5
TAP	54	192	6
TAP	54	192	7
TAP	54	288	6
TAP	54	288	7
TAP	55	0	0
TAP	55	96	1
BRK	55	192	2
BRK	55	192	7
STR	56	0	3
SCL	56	0	3	96	192	0
STR	57	0	7
SCL	57	0	7	96	192	4
TAP	58	0	3
TAP	58	96	2
TAP	58	192	4
TAP	58	288	5
TAP	59	0	3
TAP	59	0	4
TAP	59	96	3
TAP	59	96	4
XTP	59	192	2
XTP	59	192	5
TAP	60	0	1
TAP	60	96	2
TAP	60	192	3
TAP	60	240	3
TAP	60	288	3
TAP	61	0	4
TAP	61	96	5
TAP	61	192	6
TAP	61	240	6
TAP	61	288	6
TAP	62	0	7
TAP	62	96	0
TAP	62	192	1
TAP	62	240	1
TAP	62	288	1
TAP	63	0	0
TAP	63	0	1
TAP	63	96	2
TAP	63	96	7
BRK	63	192	3
BRK	63	192	6
TAP	64	0	6
TAP	64	96	5
TAP	64	192	4
TAP	64	240	4
TAP	64	288	4
TAP	65	0	3
TAP	65	96	2
TAP	65	192	1
TAP	65	240	1
TAP	65	288	1
HLD	66	0	0	96
HLD	66	0	1	96
HLD	66	192	6	96
HLD	66	192	7	96
HLD	67	0	0	96
HLD	67	0	7	96
TAP	67	192	0
TAP	67	192	7
TAP	67	288	1
TAP	67	288	6
BST	68	0	2
SLL	68	0	2	96	480	3
BST	68	0	5
SLR	68	0	5	96	480	4
TAP	70	0	5
TAP	70	96	4
TAP	70	96	6
TAP	70	192	3
TAP	70	288	2
TAP	70	288	4
TAP	71	0	5
TAP	71	96	4
TAP	71	96	6
TAP	71	192	3
TAP	71	240	3
XTP	71	288	3
XTP	71	288	4
TAP	72	0	5
TAP	72	96	5
TAP	72	192	6
TAP	72	192	7
TAP	72	288	6
TAP	72	288	7
TAP	73	0	0
TAP	73	96	1
TAP	73	192	2
TAP	73	192	3
TAP	73	288	2
TAP	73	288	3
TAP	74	0	4
TAP	74	96	3
TAP	74	96	5
TAP	74	192	2
TAP	74	288	1
TAP	74	288	3
TAP	75	0	0
TAP	75	96	0
TAP	75	96	7
TAP	75	192	1
TAP	75	192	6
TAP	75	240	1
TAP	75	240	6
BRK	75	288	1
BRK	75	288	6

T_REC_TAP	178
T_REC_BRK	8
T_REC_XTP	10
T_REC_HLD	23
T_REC_XHO	0
T_REC_STR	6
T_REC_BST	3
T_REC_XST	0
T_REC_TTP	29
T_REC_THO	1
T_REC_SLD	9
T_REC_ALL	267
T_NUM_TAP	223
T_NUM_BRK	11
T_NUM_HLD	24
T_NUM_SLD	9
T_NUM_ALL	267
T_JUDGE_TAP	234
T_JUDGE_HLD	92
T_JUDGE_SLD	9
T_JUDGE_ALL	335
TTM_EACHPAIRS	59
TTM_SCR_TAP	111500
TTM_SCR_BRK	28600
TTM_SCR_HLD	24000
TTM_SCR_SLD	13500
TTM_SCR_ALL	177600
TTM_SCR_S	171250
TTM_SCR_SS	176500
TTM_RAT_ACV	10062

