VERSION	0.00.00	1.03.00
FES_MODE	0
BPM_DEF	151.000	151.000	151.000	151.000
MET_DEF	4	4
RESOLUTION	384
CLK_DEF	384
COMPATIBLE_CODE	MA2

BPM	0	0	151.000
MET	0	0	4	4

TAP	6	0	0
TAP	6	192	0
TAP	7	0	0
TAP	8	0	7
TAP	8	192	7
TAP	9	0	0
TAP	9	0	7
BRK	9	192	0
BRK	9	192	7
TAP	10	0	0
TAP	10	192	0
TAP	11	0	1
TAP	11	192	1
TAP	12	0	2
TAP	12	192	2
TAP	13	0	3
TAP	13	96	3
TAP	13	192	3
TAP	14	0	4
TAP	14	192	4
TAP	15	0	5
TAP	15	192	5
TAP	16	0	6
TAP	16	192	6
TAP	17	0	7
TAP	17	96	7
TAP	17	192	0
TAP	17	192	7
HLD	18	0	0	192
TAP	19	0	0
TAP	19	192	0
HLD	20	0	7	192
TAP	21	0	7
TAP	21	192	7
HLD	22	0	6	192
TAP	23	0	6
TAP	23	192	6
TAP	24	0	5
TAP	24	192	5
TAP	25	0	3
TAP	25	0	4
BRK	25	192	3
BRK	25	192	4
TAP	26	0	3
TAP	26	96	3
TAP	26	192	3
TAP	27	0	3
TAP	27	96	3
TAP	27	192	3
TAP	27	192	4
TAP	28	0	2
TAP	28	192	2
TAP	29	0	2
TAP	29	0	3
TAP	29	192	2
TAP	29	192	3
TAP	30	0	1
TAP	30	96	1
TAP	30	192	1
TAP	31	0	1
TAP	31	96	1
TAP	31	192	1
TAP	32	0	0
TAP	32	192	0
TAP	33	0	0
TAP	33	0	7
BRK	33	192	0
BRK	33	192	7
TTP	34	0	0	B	0	L1
TTP	35	0	1	B	0	L1
TTP	36	0	2	B	0	L1
TTP	37	0	3	B	0	L1
TTP	38	0	4	B	0	L1
TTP	39	0	5	B	0	L1
TTP	40	0	6	B	0	L1
TTP	40	0	7	B	0	L1
TTP	41	0	0	B	0	L1
TTP	41	0	1	B	0	L1
THO	42	0	0	384	C	1	L1
TAP	44	0	7
TAP	44	96	7
TAP	44	192	7
TAP	45	0	6
TAP	45	96	6
TAP	45	192	6
TAP	45	192	7
TAP	46	0	5
TAP	46	96	5
TAP	46	192	4
TAP	46	288	4
TAP	47	0	3
TAP	47	96	3
XTP	47	192	3
XTP	47	192	4
TAP	48	0	3
TAP	48	96	3
TAP	48	192	3
TAP	49	0	2
TAP	49	96	2
TAP	49	192	2
TAP	49	192	3
TAP	50	0	1
TAP	50	96	1
TAP	50	192	0
TAP	50	288	0
TAP	51	0	7
TAP	51	96	7
BRK	51	192	0
BRK	51	192	7
TAP	52	0	0
TAP	52	96	0
TAP	52	192	0
TAP	53	0	1
TAP	53	96	1
TAP	53	192	0
TAP	53	192	1
TAP	54	0	2
TAP	54	96	2
TAP	54	192	3
TAP	54	288	3
TAP	55	0	4
TAP	55	96	4
XTP	55	192	3
XTP	55	192	4
TAP	56	0	4
TAP	56	96	4
TAP	56	192	4
TAP	57	0	5
TAP	57	96	5
TAP	57	192	4
TAP	57	192	5
TAP	58	0	6
TAP	58	96	6
TAP	58	192	7
TAP	58	288	7
TAP	59	0	0
TAP	59	96	0
BRK	59	192	0
BRK	59	192	7
TAP	60	0	7
TAP	60	96	7
TAP	60	192	6
TAP	60	192	7
TAP	61	0	0
TAP	61	96	7
TAP	61	192	0
TAP	62	0	0
TAP	62	96	0
TAP	62	192	0
TAP	62	192	1
TAP	63	0	7
TAP	63	96	0
BRK	63	192	7
TAP	64	0	7
TAP	64	96	7
TAP	64	192	6
TAP	64	288	6
TAP	65	0	5
TAP	65	96	5
TAP	65	192	3
TAP	65	192	4
TAP	66	0	3
TAP	66	96	3
TAP	66	192	2
TAP	66	288	2
TAP	67	0	1
TAP	67	96	1
TAP	67	192	0
TAP	67	192	7
STR	68	0	7
SI_	68	0	7	96	288	3
STR	70	0	0
SI_	70	0	0	96	288	4
TAP	72	0	5
TAP	72	96	5
TAP	72	192	5
TAP	73	0	4
TAP	73	96	4
TAP	73	192	4
TAP	74	0	3
TAP	74	96	3
TAP	74	192	3
TAP	74	192	4
TAP	75	0	4
TAP	75	96	4
TAP	75	192	3
TAP	75	192	4
BRK	75	288	3
BRK	75	288	4

T_REC_TAP	154
T_REC_BRK	13
T_REC_XTP	4
T_REC_HLD	3
T_REC_XHO	0
T_REC_STR	2
T_REC_BST	0
T_REC_XST	0
T_REC_TTP	10
T_REC_THO	1
T_REC_SLD	2
T_REC_ALL	189
T_NUM_TAP	170
T_NUM_BRK	13
T_NUM_HLD	4
T_NUM_SLD	2
T_NUM_ALL	189
T_JUDGE_TAP	183
T_JUDGE_HLD	20
T_JUDGE_SLD	2
T_JUDGE_ALL	205
TTM_EACHPAIRS	25
TTM_SCR_TAP	85000
TTM_SCR_BRK	33800
TTM_SCR_HLD	4000
TTM_SCR_SLD	3000
TTM_SCR_ALL	125800
TTM_SCR_S	120800
TTM_SCR_SS	124500
TTM_RAT_ACV	10104

