VERSION	0.00.00	1.03.00
FES_MODE	0
BPM_DEF	200.000	200.000	200.000	200.000
MET_DEF	4	4
RESOLUTION	384
CLK_DEF	384
COMPATIBLE_CODE	MA2

BPM	0	0	200.000
MET	0	0	4	4

HLD	1	0	2	384
TAP	1	96	3
TAP	1	144	4
HLD	2	0	5	384
TAP	2	96	4
TAP	2	144	3
HLD	3	0	2	384
TAP	3	96	3
TAP	3	144	4
TAP	4	0	5
TTP	4	192	3	B	0	M1
TTP	4	192	4	B	0	M1
HLD	5	0	5	384
TAP	5	96	4
TAP	5	144	3
HLD	6	0	2	384
TAP	6	96	3
TAP	6	144	4
HLD	7	0	5	384
TAP	7	96	4
TAP	7	144	3
TAP	8	0	2
TAP	8	192	3
BRK	8	288	2
BRK	8	288	4
TAP	9	0	0
STR	9	0	6
SCL	9	0	6	96	48	3
TAP	9	96	2
TAP	9	144	2
TAP	9	240	3
TAP	9	288	2
TAP	9	288	4
STR	10	0	1
SCR	10	0	1	96	48	4
TAP	10	0	7
TAP	10	96	5
TAP	10	144	5
TAP	10	240	4
TAP	10	288	3
TAP	10	288	5
TAP	11	0	0
STR	11	0	6
SCL	11	0	6	96	48	3
TAP	11	96	2
TAP	11	144	2
TAP	11	240	3
TAP	11	288	2
TAP	11	288	4
STR	12	0	1
SI_	12	0	1	96	48	4
TAP	12	96	6
STR	12	192	5
SI_	12	192	5	96	48	0
TAP	12	288	2
STR	13	0	1
SCR	13	0	1	96	48	4
TAP	13	96	5
TAP	13	144	5
STR	13	240	6
SI_	13	240	6	96	48	3
STR	13	240	7
SI_	13	240	7	96	48	2
XTP	13	336	6
XTP	13	336	7
STR	14	48	0
SI_	14	48	0	96	48	5
STR	14	48	1
SI_	14	48	1	96	48	4
XTP	14	144	0
XTP	14	144	1
TAP	14	240	3
TAP	14	240	6
TAP	14	288	3
TAP	14	288	6
XTP	15	0	0
XTP	15	0	7
TAP	15	96	1
TAP	15	96	3
TAP	15	144	2
TAP	15	192	4
TAP	15	192	6
TAP	15	240	5
TAP	15	288	1
TAP	15	288	3
TAP	15	336	2
TAP	16	0	3
TAP	16	0	4
STR	16	48	3
SI_	16	48	3	96	48	0
STR	16	48	4
SI_	16	48	4	96	48	7
XTP	16	144	3
XTP	16	144	4
HLD	17	0	6	96
TAP	17	96	4
HLD	17	144	3	96
TAP	17	288	2
TAP	17	288	4
HLD	18	0	1	96
TAP	18	96	3
HLD	18	144	4	96
XTP	18	288	3
XTP	18	288	5
HLD	19	0	6	96
TAP	19	96	4
HLD	19	144	3	96
TAP	19	288	2
TAP	19	288	4
HLD	20	0	1	96
TAP	20	96	4
HLD	20	144	5	96
XTP	20	288	3
XTP	20	288	6
HLD	21	0	1	96
TAP	21	96	3
HLD	21	144	4	96
TAP	21	288	3
TAP	21	288	5
HLD	22	0	6	96
TAP	22	96	4
HLD	22	144	3	96
XTP	22	288	2
XTP	22	288	4
HLD	23	0	1	96
TAP	23	96	3
HLD	23	144	4	96
TAP	23	288	3
TAP	23	288	5
TTP	24	0	0	E	0	M1
TTP	24	0	6	B	0	M1
TTP	24	0	6	E	0	M1
TTP	24	0	7	B	0	M1
TTP	24	192	2	B	0	M1
TTP	24	192	2	E	0	M1
TTP	24	192	3	B	0	M1
TTP	24	192	4	E	0	M1
TAP	25	0	7
STR	25	96	4
SI_	25	96	4	96	48	0
TAP	25	96	7
TAP	25	192	7
TAP	25	288	7
TAP	26	0	0
TAP	26	0	7
TAP	26	96	1
TAP	26	96	7
TAP	26	192	2
TAP	26	192	7
XTP	26	288	3
TAP	26	288	7
TAP	27	0	4
TAP	27	0	7
STR	27	96	5
SI_	27	96	5	96	48	1
TAP	27	96	7
TAP	27	192	7
TAP	27	288	7
TAP	28	0	3
TAP	28	0	7
TAP	28	96	3
TAP	28	96	7
TAP	28	192	3
TAP	28	192	7
TAP	28	240	6
TAP	28	288	1
TAP	28	288	5
TAP	29	0	0
TAP	29	96	0
STR	29	96	5
SCL	29	96	5	96	48	2
TAP	29	192	0
TAP	29	288	0
TAP	30	0	0
TAP	30	0	7
TAP	30	96	0
TAP	30	96	6
TAP	30	192	0
TAP	30	192	5
TAP	30	288	0
XTP	30	288	4
TAP	31	0	0
TAP	31	0	3
TAP	31	96	0
STR	31	96	2
SI_	31	96	2	96	48	6
TAP	31	192	0
TAP	31	288	0
TAP	32	0	0
TAP	32	0	7
TAP	32	96	1
TAP	32	96	6
TAP	32	192	3
TAP	32	216	4
TAP	32	240	3
TAP	32	288	2
TAP	32	288	5
STR	33	0	7
SCL	33	0	7	96	48	4
STR	33	144	2
SCL	33	144	2	96	48	7
STR	33	288	4
SXR	33	288	4	96	192	5
HLD	34	192	1	72
HLD	34	264	2	72
TAP	34	336	3
STR	35	0	3
SCL	35	0	3	96	48	0
STR	35	144	6
SCL	35	144	6	96	48	3
STR	35	288	1
SXR	35	288	1	96	192	2
STR	36	192	7
SI_	36	192	7	96	48	3
TAP	36	288	1
TAP	36	288	7
STR	37	0	0
SCR	37	0	0	96	48	3
STR	37	144	5
SCR	37	144	5	96	48	0
STR	37	288	3
SXL	37	288	3	96	192	2
HLD	38	192	7	72
HLD	38	264	6	72
TAP	38	336	5
STR	39	0	4
SCL	39	0	4	96	48	1
STR	39	0	5
SCR	39	0	5	96	48	0
TAP	39	192	2
TAP	39	192	7
TAP	39	288	2
TAP	39	288	3
TAP	39	336	1
TAP	39	336	4
TAP	40	48	5
TAP	40	72	4
TAP	40	96	5
TAP	40	144	3
TAP	40	144	6
TAP	40	240	0
TAP	40	288	0
TAP	41	0	4
STR	41	0	6
SCR	41	0	6	96	48	1
TAP	41	96	4
TAP	41	192	3
TAP	41	288	2
TAP	41	336	2
STR	42	0	1
SCL	42	0	1	96	48	6
TAP	42	0	3
TAP	42	96	3
TAP	42	192	4
TAP	42	240	4
TAP	42	288	3
TAP	42	288	5
TAP	43	0	0
STR	43	0	5
SCL	43	0	5	96	48	2
TAP	43	96	0
TAP	43	192	1
TAP	43	192	7
TAP	43	288	0
TAP	43	336	0
STR	44	0	2
SCR	44	0	2	96	48	5
TAP	44	0	7
TAP	44	96	7
TAP	44	192	0
TAP	44	192	6
TAP	44	288	2
TAP	44	336	4
TAP	45	0	3
TAP	45	0	5
TAP	45	96	4
STR	45	144	4
SCR	45	144	4	96	96	0
STR	45	240	0
SCR	45	240	0	96	96	4
TAP	45	336	4
TAP	46	48	0
HLD	46	96	0	96
TAP	46	192	7
TAP	46	288	3
TAP	46	288	4
TAP	47	0	1
TAP	47	0	6
TAP	47	96	2
TAP	47	96	5
TAP	47	144	3
TAP	47	168	4
TAP	47	192	3
TAP	47	240	2
TAP	47	240	5
STR	47	288	1
SI_	47	288	1	96	48	4
STR	47	288	6
SI_	47	288	6	96	48	3
XTP	48	0	1
XTP	48	0	6
TAP	48	288	2
STR	48	288	5
SI_	48	288	5	96	48	2
TAP	49	0	0
XTP	49	0	5
TAP	49	96	1
TAP	49	96	3
TAP	49	192	3
TAP	49	192	4
STR	49	240	0
SI_	49	240	0	96	48	3
STR	49	240	7
SI_	49	240	7	96	48	4
XTP	49	336	0
XTP	49	336	7
TAP	50	48	2
TAP	50	48	5
TAP	50	96	1
HLD	50	96	6	96
TAP	50	192	4
TAP	50	240	4
TAP	50	288	3
TAP	50	336	2
TAP	51	0	1
TAP	51	0	4
TAP	51	96	0
STR	51	144	1
SXR	51	144	1	96	96	0
TAP	51	144	7
STR	51	240	0
SCR	51	240	0	96	144	7
XTP	51	336	4
TAP	52	192	2
TAP	52	192	4
TAP	52	288	3
TAP	52	288	5
TAP	52	336	6
TAP	53	0	0
TAP	53	0	7
TAP	53	96	2
STR	53	144	2
SI_	53	144	2	96	48	6
STR	53	240	5
SI_	53	240	5	96	48	1
HLD	53	336	0	96
TAP	54	96	1
TAP	54	96	7
STR	54	144	1
SI_	54	144	1	96	48	4
TAP	54	144	7
STR	54	240	5
SI_	54	240	5	96	48	0
HLD	54	336	2	96
TAP	55	96	3
TAP	55	96	7
TAP	55	144	3
STR	55	144	7
SI_	55	144	7	96	48	3
STR	55	240	0
SI_	55	240	0	96	48	4
TAP	55	240	7
TAP	55	336	0
TAP	55	336	6
TAP	56	48	5
TAP	56	96	5
TAP	56	144	4
TAP	56	192	2
TAP	56	216	3
TAP	56	240	2
STR	56	288	1
SI_	56	288	1	96	48	5
STR	56	288	4
SI_	56	288	4	96	48	7
TAP	57	0	1
TAP	57	0	4
XTP	57	96	2
XTP	57	96	6
TAP	57	192	0
STR	57	240	0
SCR	57	240	0	96	96	5
HLD	57	336	7	192
TAP	58	144	3
TAP	58	192	3
TAP	58	288	4
TAP	58	288	5
TAP	58	336	3
STR	59	0	2
SI_	59	0	2	96	48	6
TAP	59	96	7
STR	59	192	5
SI_	59	192	5	96	48	2
TAP	59	288	0
TAP	59	336	0
TAP	60	48	1
TAP	60	96	1
TAP	60	144	5
TAP	60	168	4
TAP	60	192	6
TAP	60	240	3
XST	60	240	7
SCL	60	240	7	96	192	2
TAP	60	336	2
HLD	61	192	0	144
TAP	61	336	3
TAP	62	48	5
TAP	62	96	5
HLD	62	192	7	72
HLD	62	264	6	72
TAP	62	336	5
STR	63	0	4
SLL	63	0	4	96	192	6
STR	63	0	6
SLR	63	0	6	96	192	4
STR	63	336	1
SCR	63	336	1	96	96	4
HLD	64	192	6	96
TAP	64	288	4
TAP	64	336	3
TAP	65	0	2
TAP	65	0	4
TAP	65	96	1
TAP	65	96	5
STR	65	144	0
SCR	65	144	0	96	48	3
STR	65	144	4
SCR	65	144	4	96	48	7
XTP	65	240	0
XTP	65	240	4
HLD	65	336	2	96
HLD	65	336	6	96
STR	66	96	1
SI_	66	96	1	96	48	6
STR	66	96	5
SI_	66	96	5	96	48	2
BRK	66	288	0
BRK	66	288	4
HLD	67	0	5	192
TAP	67	192	4
TAP	67	240	5
TAP	67	288	2
HLD	67	336	6	240
TTP	68	48	4	E	0	M1
TTP	68	72	3	E	0	M1
TTP	68	96	2	E	0	M1
TAP	68	192	4
TAP	68	240	6
TAP	68	288	1
HLD	68	336	7	240
TTP	69	48	4	E	0	M1
TTP	69	72	3	E	0	M1
TTP	69	96	2	E	0	M1
TAP	69	192	4
STR	69	240	7
SI_	69	240	7	96	48	3
TAP	69	288	0
XTP	69	336	7
XTP	70	192	0
TAP	70	204	1
TAP	70	216	2
TAP	70	228	3
TAP	70	240	4
TAP	70	252	5
TAP	70	264	6
TAP	70	276	7
TAP	70	288	0
XTP	71	0	2
XTP	71	0	6
TAP	71	96	1
HLD	71	144	1	96
HLD	71	240	3	96
HLD	71	336	4	96
STR	72	48	6
SI_	72	48	6	96	48	2
STR	72	144	0
SCR	72	144	0	96	48	3
TAP	72	240	7
TAP	72	288	7
TAP	73	0	1
TAP	73	0	5
TAP	73	96	6
HLD	73	144	6	96
HLD	73	240	4	96
HLD	73	336	3	96
STR	74	48	1
SI_	74	48	1	96	48	5
STR	74	144	7
SCL	74	144	7	96	48	4
TAP	74	240	0
TAP	74	288	0
TAP	75	0	2
TAP	75	0	6
TAP	75	96	1
TAP	75	144	1
TAP	75	240	2
TAP	75	240	3
TAP	75	336	1
TAP	75	336	4
HLD	76	0	1	96
TAP	76	0	4
TTP	76	96	5	E	0	M1
TTP	76	120	4	E	0	M1
TTP	76	144	3	E	0	M1
TAP	76	240	0
TAP	76	240	7
TAP	76	288	0
TAP	76	288	7
TAP	77	0	1
TAP	77	0	5
TAP	77	96	6
HLD	77	144	6	96
TAP	77	240	4
TAP	77	336	3
TAP	77	336	7
TAP	78	48	2
TAP	78	48	4
STR	78	144	1
SI_	78	144	1	96	48	5
TAP	78	144	5
TAP	78	240	7
TAP	78	288	7
TAP	79	0	4
TAP	79	0	6
TAP	79	96	2
HLD	79	144	2	96
HLD	79	240	0	96
HLD	79	336	7	96
STR	80	48	5
SI_	80	48	5	96	48	1
STR	80	144	4
SCL	80	144	4	96	48	0
TAP	80	240	7
TAP	80	288	7
TAP	81	0	1
TAP	81	0	4
TAP	81	96	5
HLD	81	144	5	96
HLD	81	240	7	96
HLD	81	336	0	96
TAP	82	48	2
TTP	82	144	5	E	0	M1
TTP	82	168	4	E	0	M1
TTP	82	192	2	B	0	M1
TTP	82	192	3	E	0	M1
TTP	82	256	5	B	0	M1
TTP	82	256	6	B	0	M1
TTP	82	320	0	B	0	M1
TTP	82	320	7	B	0	M1
TTP	83	0	0	C	1	M1
TTP	83	0	3	B	0	M1
TTP	83	0	4	B	0	M1
TAP	83	144	0
TAP	83	144	7
TAP	83	240	4
TAP	83	240	6
TAP	83	336	1
TAP	83	336	3
TAP	84	48	0
TAP	84	48	7
TAP	84	96	1
TAP	84	96	6
STR	84	144	2
SCL	84	144	2	96	48	0
STR	84	144	5
SCR	84	144	5	96	48	7
TAP	84	336	1
TAP	84	336	6
TAP	85	0	1
TAP	85	0	6
TAP	85	96	3
TAP	85	96	5
TAP	85	192	2
TAP	85	240	2
TAP	85	288	1
TAP	85	288	3
TAP	85	336	0
TAP	86	0	7
TAP	86	48	6
TAP	86	96	2
TAP	86	96	5
TAP	86	144	1
TAP	86	192	0
TAP	86	192	4
TAP	86	288	1
TAP	86	312	4
TAP	86	336	3
TAP	86	360	6
BRK	87	0	0
TAP	87	336	1
TAP	87	336	6
TAP	88	48	3
TAP	88	72	4
TAP	88	96	3
STR	88	288	2
SI_	88	288	2	96	48	5
TAP	88	288	5
XTP	89	0	2
TAP	89	0	7
TAP	89	96	4
TAP	89	96	6
TAP	89	192	2
TAP	89	192	5
STR	89	240	3
SI_	89	240	3	96	48	0
STR	89	240	4
SI_	89	240	4	96	48	7
XTP	89	336	3
XTP	89	336	4
TAP	90	48	2
TAP	90	48	5
HLD	90	96	1	96
TAP	90	96	6
TAP	90	192	3
TAP	90	240	3
TAP	90	288	4
TAP	90	336	5
TAP	91	0	4
TAP	91	0	5
TAP	91	96	7
TAP	91	144	0
STR	91	144	6
SXL	91	144	6	96	96	7
STR	91	240	7
SCL	91	240	7	96	144	0
XTP	91	336	3
TAP	92	192	3
TAP	92	192	5
TAP	92	288	2
TAP	92	288	4
TAP	92	336	1
TAP	93	0	0
TAP	93	0	7
TAP	93	96	5
STR	93	144	5
SI_	93	144	5	96	48	1
STR	93	240	2
SI_	93	240	2	96	48	6
TAP	93	336	7
TAP	94	0	7
TAP	94	96	1
TAP	94	96	6
TAP	94	192	0
TAP	94	216	7
TAP	94	240	0
STR	94	288	1
SI_	94	288	1	96	48	4
STR	94	288	6
SI_	94	288	6	96	48	3
TAP	95	0	1
TAP	95	0	6
BRK	96	48	2
BRK	96	48	5
BRK	96	96	2
BRK	96	96	5
STR	96	288	3
SI_	96	288	3	96	48	0
STR	96	288	6
SI_	96	288	6	96	48	2
TAP	97	0	3
TAP	97	0	6
XTP	97	96	1
XTP	97	96	5
TAP	97	192	7
STR	97	240	7
SCL	97	240	7	96	96	2
HLD	97	336	0	192
TAP	98	144	4
TAP	98	192	4
TAP	98	288	2
TAP	98	288	3
TAP	98	336	4
STR	99	0	5
SI_	99	0	5	96	48	1
TAP	99	96	0
STR	99	192	2
SI_	99	192	2	96	48	5
TAP	99	288	7
TAP	99	336	7
TAP	100	48	6
TAP	100	96	6
TAP	100	144	2
TAP	100	168	3
TAP	100	192	1
XST	100	240	0
SCR	100	240	0	96	192	5
TAP	100	240	4
TAP	100	336	5
HLD	101	192	7	144
TAP	101	336	4
TAP	102	48	2
TAP	102	96	2
HLD	102	192	0	72
HLD	102	264	1	72
TAP	102	336	2
STR	103	0	1
SLL	103	0	1	96	192	3
STR	103	0	3
SLR	103	0	3	96	192	1
STR	103	336	6
SCL	103	336	6	96	96	3
HLD	104	192	1	96
TAP	104	288	3
TAP	104	336	4
TAP	105	0	3
TAP	105	0	5
TAP	105	96	2
TAP	105	96	6
STR	105	144	3
SCL	105	144	3	96	48	0
STR	105	144	7
SCL	105	144	7	96	48	4
XTP	105	240	3
XTP	105	240	7
HLD	105	336	1	96
HLD	105	336	5	96
TAP	106	96	2
TAP	106	96	6
TAP	106	144	2
TAP	106	144	6
TAP	106	240	1
TAP	106	240	5
TAP	106	288	0
TAP	106	312	7
TAP	106	336	0
TAP	106	360	7
STR	107	0	0
SI_	107	0	0	96	96	4
TAP	107	96	5
STR	107	144	6
SI_	107	144	6	96	96	2
TAP	107	240	3
STR	107	288	3
SCL	107	288	3	96	192	4
TAP	108	288	2
TAP	108	288	4
STR	109	0	0
SCR	109	0	0	96	192	5
TAP	109	144	7
TAP	109	192	7
TAP	109	288	6
STR	110	0	7
SCL	110	0	7	96	192	2
TAP	110	144	0
TAP	110	192	0
TAP	110	288	1
STR	111	0	0
SCR	111	0	0	96	192	5
TAP	111	144	7
TAP	111	192	7
TAP	111	288	6
HLD	112	0	7	144
TAP	112	144	0
TAP	112	192	0
TAP	112	288	1
TAP	112	288	6
STR	113	0	3
SCL	113	0	3	96	48	0
STR	113	0	7
SCL	113	0	7	96	48	4
XTP	113	96	3
XTP	113	96	7
TAP	113	192	1
TAP	113	192	5
TAP	113	240	2
STR	113	288	3
SI_	113	288	3	96	48	0
STR	113	288	7
SI_	113	288	7	96	48	4
TAP	114	0	3
TAP	114	0	7
XTP	114	192	7
HLD	115	0	2	192
TAP	115	192	3
TAP	115	240	2
TAP	115	288	5
HLD	115	336	1	240
TTP	116	48	4	E	0	M1
TTP	116	72	5	E	0	M1
TTP	116	96	6	E	0	M1
TAP	116	192	3
TAP	116	240	1
TAP	116	288	6
HLD	116	336	0	240
TTP	117	48	4	E	0	M1
TTP	117	72	5	E	0	M1
TTP	117	96	6	E	0	M1
TAP	117	192	3
STR	117	240	0
SI_	117	240	0	96	48	4
TAP	117	288	7
XTP	117	336	0

T_REC_TAP	438
T_REC_BRK	9
T_REC_XTP	42
T_REC_HLD	64
T_REC_XHO	0
T_REC_STR	99
T_REC_BST	0
T_REC_XST	2
T_REC_TTP	36
T_REC_THO	0
T_REC_SLD	101
T_REC_ALL	791
T_NUM_TAP	617
T_NUM_BRK	9
T_NUM_HLD	64
T_NUM_SLD	101
T_NUM_ALL	791
T_JUDGE_TAP	626
T_JUDGE_HLD	187
T_JUDGE_SLD	101
T_JUDGE_ALL	914
TTM_EACHPAIRS	166
TTM_SCR_TAP	308500
TTM_SCR_BRK	23400
TTM_SCR_HLD	64000
TTM_SCR_SLD	151500
TTM_SCR_ALL	547400
TTM_SCR_S	530150
TTM_SCR_SS	546500
TTM_RAT_ACV	10016

