VERSION	0.00.00	1.03.00
FES_MODE	0
BPM_DEF	200.000	200.000	200.000	200.000
MET_DEF	4	4
RESOLUTION	384
CLK_DEF	384
COMPATIBLE_CODE	MA2

BPM	0	0	200.000
MET	0	0	4	4

STR	4	288	0
SCR	4	288	0	96	672	7
THO	7	0	0	576	C	1	M1
TAP	9	0	0
TAP	9	0	7
TAP	9	96	6
HLD	9	144	6	96
TAP	9	240	4
TAP	9	288	4
TAP	10	0	3
TAP	10	0	5
TAP	10	96	2
HLD	10	144	2	96
TAP	10	240	0
TAP	10	288	0
TAP	11	0	1
TAP	11	0	7
TAP	11	96	6
HLD	11	144	6	96
TAP	11	240	4
TAP	11	288	4
STR	12	0	3
SI_	12	0	3	96	48	0
STR	12	192	7
SI_	12	192	7	96	48	4
TAP	13	0	1
TAP	13	96	0
HLD	13	144	0	96
STR	13	240	6
SUL	13	240	6	96	96	1
XTP	14	144	0
XTP	14	144	7
XTP	14	240	1
XTP	14	240	6
TAP	14	336	2
TAP	15	0	2
TAP	15	96	4
TAP	15	144	3
TAP	15	192	4
TAP	15	288	2
TAP	15	288	5
BRK	16	0	0
BRK	16	0	7
BRK	16	48	0
BRK	16	48	7
BRK	16	144	2
BRK	16	144	5
HLD	17	0	4	144
TAP	17	144	3
HLD	18	0	2	144
TAP	18	144	4
HLD	19	0	5	144
TAP	19	144	4
HLD	20	0	2	144
TAP	20	144	3
TAP	21	0	4
TAP	21	0	5
TAP	21	144	4
TAP	21	144	6
TAP	22	0	2
TAP	22	0	3
TAP	22	144	1
TAP	22	144	3
STR	23	0	0
SSL	23	0	0	96	192	4
TTP	24	0	5	B	0	M1
TTP	24	0	6	B	0	M1
TTP	24	0	6	E	0	M1
TTP	24	192	1	B	0	M1
TTP	24	192	2	B	0	M1
TTP	24	192	2	E	0	M1
HLD	25	0	7	384
TAP	25	96	5
TAP	25	192	5
TAP	25	288	5
HLD	26	0	5	384
TAP	26	96	6
TAP	26	192	6
TAP	26	288	6
HLD	27	0	6	384
TAP	27	96	4
TAP	27	192	4
TAP	27	288	4
HLD	28	0	4	384
TAP	28	96	5
TAP	28	192	5
TAP	28	288	5
STR	29	0	5
SUL	29	0	5	96	216	2
STR	30	0	1
SXR	30	0	1	96	216	6
STR	31	0	5
SI_	31	0	5	96	96	2
HLD	32	0	1	96
TAP	32	96	3
HLD	32	144	3	144
XTP	32	288	2
TTP	33	0	1	B	0	M1
TTP	33	0	1	E	0	M1
TTP	33	144	3	B	0	M1
TTP	33	144	4	B	0	M1
TTP	33	288	6	B	0	M1
TTP	33	288	7	E	0	M1
XTP	34	192	0
XTP	34	256	0
XTP	34	320	0
TTP	35	0	6	B	0	M1
TTP	35	0	7	E	0	M1
TTP	35	144	3	B	0	M1
TTP	35	144	4	B	0	M1
TTP	35	288	1	B	0	M1
TTP	35	288	1	E	0	M1
XTP	36	96	0
XTP	36	96	7
XTP	36	192	1
XTP	36	192	6
XTP	36	288	2
XTP	36	288	5
TTP	37	0	3	B	0	M1
TTP	37	0	4	B	0	M1
TTP	37	144	6	B	0	M1
TTP	37	144	7	E	0	M1
TTP	37	288	1	B	0	M1
TTP	37	288	1	E	0	M1
XTP	38	192	7
XTP	38	256	7
XTP	38	320	7
THO	39	0	0	336	C	1	M1
TAP	40	192	0
TAP	40	240	0
TAP	40	288	6
TAP	41	0	3
TAP	41	0	5
TAP	41	96	2
TAP	41	192	1
TAP	41	192	3
TAP	41	288	4
TAP	42	0	3
TAP	42	0	5
TAP	42	96	2
TAP	42	192	1
TAP	42	240	1
TAP	42	288	7
TAP	43	0	0
TAP	43	0	6
TAP	43	96	1
TAP	43	192	0
TAP	43	192	2
TAP	43	288	7
TAP	44	0	0
TAP	44	0	6
TAP	44	96	2
TAP	44	96	4
BRK	44	192	1
BRK	44	192	5
HLD	45	0	1	96
TAP	45	96	3
HLD	45	144	3	96
HLD	45	240	4	96
TAP	45	336	6
HLD	46	96	5	96
HLD	46	192	4	96
HLD	46	288	3	96
STR	47	0	2
SCL	47	0	2	96	144	5
BRK	48	0	1
BRK	48	0	6
TAP	48	192	0
TAP	48	192	7
TAP	48	288	4
TAP	48	288	6
TAP	49	0	3
TAP	49	0	4
TAP	49	96	1
TAP	49	96	3
TAP	49	192	0
TAP	49	192	7
STR	49	240	0
SI_	49	240	0	96	48	3
STR	49	240	7
SI_	49	240	7	96	48	4
TAP	50	96	2
TAP	50	96	5
TAP	50	192	1
TAP	50	192	6
TAP	50	288	0
TAP	50	336	0
TAP	51	0	1
TAP	51	0	7
TAP	51	96	5
TAP	51	144	5
STR	51	240	2
SLL	51	240	2	96	144	5
STR	51	240	6
SLR	51	240	6	96	144	3
TAP	52	192	3
TAP	52	192	5
TAP	52	288	7
TAP	52	336	7
HLD	53	0	1	96
TAP	53	96	0
TAP	53	144	0
STR	53	240	2
SI_	53	240	2	96	48	5
TAP	53	240	4
TAP	54	96	6
HLD	54	144	6	96
STR	54	240	0
SI_	54	240	0	96	48	4
TAP	55	96	3
TAP	55	96	5
TAP	55	144	3
TAP	55	144	5
TAP	55	240	0
TAP	55	240	6
BRK	55	336	1
BRK	55	336	5
TAP	56	96	3
TAP	56	96	4
TAP	56	192	0
TAP	56	240	7
TAP	56	288	0
TAP	57	0	4
TAP	57	0	5
TAP	57	96	0
TAP	57	96	1
TAP	57	144	0
TAP	57	144	1
STR	57	240	6
SUL	57	240	6	96	144	1
TAP	57	240	7
TAP	58	192	0
TAP	58	192	7
TAP	58	336	3
TAP	58	336	5
HLD	59	0	3	96
HLD	59	0	5	96
TAP	59	192	0
TAP	59	192	7
TAP	59	288	1
TAP	59	288	6
HLD	59	336	1	240
TAP	59	336	6
STR	60	192	3
SCL	60	192	3	96	384	4
TTP	62	0	0	C	1	M1
XHO	62	192	1	72
XHO	62	264	0	72
XTP	62	336	7
XST	63	0	7
SF_	63	0	7	96	144	3
HLD	63	336	2	144
HLD	63	336	5	144
TAP	64	192	4
TAP	64	240	3
TAP	64	288	4
TAP	65	0	0
TAP	65	0	7
TAP	65	96	2
TAP	65	96	4
TAP	65	144	2
TAP	65	144	4
TAP	65	240	0
TAP	65	240	6
TAP	65	336	1
HLD	66	0	1	96
TAP	66	96	3
TAP	66	144	3
BRK	66	288	2
BRK	66	288	6
HLD	67	0	7	96
TAP	67	192	1
TAP	67	192	7
TAP	67	240	1
TAP	67	240	7
HLD	67	336	0	144
HLD	67	336	6	144
TAP	68	192	0
TAP	68	192	6
TAP	68	240	0
TAP	68	240	6
HLD	68	336	3	144
HLD	68	336	5	144
TAP	69	192	3
TAP	69	192	5
TAP	69	240	3
TAP	69	240	5
BRK	69	336	2
BRK	69	336	6
TAP	71	0	0
TAP	71	0	7
TAP	71	96	1
TAP	71	144	1
TAP	71	240	2
TAP	71	240	3
HLD	71	336	4	96
HLD	72	48	5	96
HLD	72	144	6	96
TAP	72	240	7
TAP	72	288	7
TAP	73	0	0
TAP	73	96	6
TAP	73	144	6
TAP	73	240	4
TAP	73	240	5
HLD	73	336	3	96
HLD	74	48	2	96
HLD	74	144	1	96
TAP	74	240	0
TAP	74	288	0
TAP	75	0	7
TAP	75	96	1
TAP	75	144	1
TAP	75	240	2
TAP	75	240	3
HLD	75	336	4	96
HLD	76	48	5	96
HLD	76	144	6	96
TAP	76	240	7
TAP	76	288	7
TAP	77	0	0
TAP	77	0	7
TAP	77	96	5
TAP	77	144	5
TAP	77	240	2
TAP	77	240	4
TAP	77	336	1
TAP	77	336	3
TAP	78	48	4
TAP	78	48	6
BRK	78	144	1
BRK	78	144	7
TAP	79	0	0
TAP	79	0	7
TAP	79	96	1
HLD	79	144	1	96
TAP	79	240	3
TTP	79	336	2	B	0	M1
TTP	80	48	0	C	0	M1
TTP	80	144	5	B	0	M1
TAP	80	240	6
TAP	80	288	6
TAP	81	0	0
TAP	81	0	7
TAP	81	96	6
HLD	81	144	6	96
TAP	81	240	4
TTP	81	336	5	B	0	M1
TTP	82	48	0	C	0	M1
TTP	82	144	2	B	0	M1
TAP	82	240	1
TAP	82	288	1
TAP	83	0	0
TAP	83	0	7
TAP	83	96	1
HLD	83	144	1	96
TAP	83	240	2
TAP	83	288	2
TAP	84	0	0
TAP	84	0	7
TAP	84	96	6
HLD	84	144	6	96
TAP	84	240	5
TAP	84	288	5
TAP	85	0	0
TAP	85	0	7
TAP	85	96	1
TAP	85	192	2
TAP	85	192	4
TAP	85	240	2
TAP	85	240	4
BRK	85	336	1
BRK	85	336	6
TAP	86	48	0
TAP	86	96	0
TAP	86	192	1
TAP	86	192	7
BRK	86	288	2
BRK	86	288	6
TTP	87	0	0	C	0	M1
TAP	87	336	3
TAP	87	336	4
TAP	88	48	1
TAP	88	48	6
TAP	88	96	1
TAP	88	96	6
TAP	89	0	0
TAP	89	0	7
TAP	89	96	0
TAP	89	96	2
TAP	89	192	3
TAP	89	192	4
STR	89	240	3
SI_	89	240	3	96	48	0
STR	89	240	4
SI_	89	240	4	96	48	7
TAP	90	96	2
TAP	90	96	5
TAP	90	192	1
TAP	90	192	6
TAP	90	288	7
TAP	90	336	7
TAP	91	0	0
TAP	91	0	6
TAP	91	96	2
TAP	91	144	2
STR	91	240	1
SLL	91	240	1	96	144	4
STR	91	240	5
SLR	91	240	5	96	144	2
TAP	92	192	2
TAP	92	192	4
TAP	92	288	0
TAP	92	336	0
HLD	93	0	6	96
TAP	93	96	7
TAP	93	144	7
TAP	93	240	3
STR	93	240	5
SI_	93	240	5	96	48	2
TAP	94	96	1
HLD	94	144	1	96
TAP	94	240	7
BRK	94	336	2
BRK	94	336	6
BRK	95	0	2
BRK	95	0	6
XTP	96	48	3
XTP	96	48	4
XTP	96	96	3
XTP	96	96	4
TAP	97	0	3
TAP	97	0	4
TAP	97	96	6
TAP	97	96	7
TAP	97	192	0
TAP	97	192	1
TAP	97	240	0
STR	97	240	1
SUR	97	240	1	96	144	6
TAP	98	192	0
TAP	98	192	7
TAP	98	336	2
TAP	98	336	4
HLD	99	0	2	96
HLD	99	0	4	96
TAP	99	192	0
TAP	99	192	7
TAP	99	288	1
TAP	99	288	6
TAP	99	336	1
HLD	99	336	6	240
STR	100	192	4
SCR	100	192	4	96	384	3
TTP	102	0	0	C	1	M1
XHO	102	192	6	72
XHO	102	264	7	72
XTP	102	336	0
XST	103	0	0
SF_	103	0	0	96	144	4
HLD	103	336	2	144
HLD	103	336	5	144
TAP	104	192	4
TAP	104	240	3
TAP	104	288	4
TAP	105	0	0
TAP	105	0	7
TAP	105	96	3
TAP	105	96	5
TAP	105	144	3
TAP	105	144	5
TAP	105	240	1
TAP	105	240	7
TAP	105	336	6
HLD	106	0	6	96
TAP	106	96	4
TAP	106	144	4
TAP	106	240	1
TAP	106	240	5
XTP	106	336	2
XTP	106	336	4
XTP	107	0	2
XTP	107	0	4
XTP	107	144	4
XTP	107	144	6
BST	107	288	1
SCL	107	288	1	96	240	3
BRK	107	288	5
STR	109	0	6
SCR	109	0	6	96	192	1
TAP	109	192	3
STR	110	0	2
SUL	110	0	2	96	192	5
TAP	110	192	4
STR	111	0	6
SUL	111	0	6	96	192	1
TAP	111	192	3
STR	112	0	2
SCR	112	0	2	96	192	5
TAP	112	192	6
TAP	113	0	0
TAP	113	0	7
TAP	113	96	6
TAP	113	144	6
TAP	113	240	2
TAP	113	240	4
TAP	113	288	2
TAP	113	288	4
BRK	114	0	1
BRK	114	0	5
TTP	114	192	0	C	0	M1
HLD	115	0	0	96
HLD	115	0	1	96
TAP	115	192	0
TAP	115	192	1
TAP	115	240	0
TAP	115	240	1
HLD	115	336	6	144
HLD	115	336	7	144
TAP	116	192	6
TAP	116	192	7
TAP	116	240	6
TAP	116	240	7
HLD	116	336	4	144
HLD	116	336	5	144
TAP	117	192	4
TAP	117	192	5
TAP	117	240	4
TAP	117	240	5
BRK	117	336	2
BRK	117	336	6

T_REC_TAP	309
T_REC_BRK	31
T_REC_XTP	29
T_REC_HLD	60
T_REC_XHO	4
T_REC_STR	28
T_REC_BST	1
T_REC_XST	2
T_REC_TTP	34
T_REC_THO	2
T_REC_SLD	31
T_REC_ALL	531
T_NUM_TAP	402
T_NUM_BRK	32
T_NUM_HLD	66
T_NUM_SLD	31
T_NUM_ALL	531
T_JUDGE_TAP	434
T_JUDGE_HLD	194
T_JUDGE_SLD	31
T_JUDGE_ALL	659
TTM_EACHPAIRS	137
TTM_SCR_TAP	201000
TTM_SCR_BRK	83200
TTM_SCR_HLD	66000
TTM_SCR_SLD	46500
TTM_SCR_ALL	396700
TTM_SCR_S	381700
TTM_SCR_SS	393500
TTM_RAT_ACV	10081

