VERSION	0.00.00	1.03.00
FES_MODE	0
BPM_DEF	200.000	200.000	200.000	200.000
MET_DEF	4	4
RESOLUTION	384
CLK_DEF	384
COMPATIBLE_CODE	MA2

BPM	0	0	200.000
MET	0	0	4	4

HLD	5	0	3	1152
HLD	7	0	4	384
XTP	8	192	2
XTP	8	192	5
TAP	9	0	2
TAP	9	96	2
TAP	9	192	3
TAP	10	0	5
TAP	10	96	5
TAP	10	192	4
TAP	11	0	2
TAP	11	96	2
TAP	11	192	3
TAP	12	0	3
TAP	12	0	4
TAP	12	192	2
TAP	12	192	5
TAP	13	0	6
TAP	13	96	6
TAP	13	192	7
TAP	13	288	7
TAP	14	0	0
TAP	14	96	0
TAP	14	192	0
TAP	14	192	7
TAP	14	288	0
TAP	14	288	7
HLD	15	0	1	192
HLD	15	0	6	192
BRK	16	0	1
BRK	16	0	6
STR	17	0	2
SI_	17	0	2	96	288	5
TAP	18	192	6
STR	19	0	6
SI_	19	0	6	96	288	2
TAP	20	192	1
STR	21	0	1
SI_	21	0	1	96	288	4
TAP	22	192	5
HLD	23	0	3	192
HLD	23	0	4	192
XTP	24	0	3
XTP	24	0	4
XTP	24	192	2
XTP	24	192	5
STR	25	0	1
SCR	25	0	1	96	288	4
TAP	26	192	5
STR	27	0	5
SCR	27	0	5	96	288	0
TAP	28	192	1
STR	29	0	1
SI_	29	0	1	96	288	5
TAP	30	192	6
HLD	31	0	0	192
HLD	31	0	7	192
XTP	32	0	0
XTP	32	0	7
XTP	32	192	1
XTP	32	192	6
TTP	33	0	1	E	0	L1
TTP	33	192	0	C	0	L1
TTP	34	0	5	E	0	L1
TTP	34	192	6	E	0	L1
TTP	35	0	7	E	0	L1
TTP	35	192	0	C	0	L1
TTP	36	0	3	E	0	L1
TTP	37	0	5	E	0	L1
TTP	37	192	6	E	0	L1
TTP	38	0	7	E	0	L1
TTP	38	192	0	E	0	L1
TTP	39	0	1	E	0	L1
TTP	39	192	2	E	0	L1
TTP	40	0	3	E	0	L1
TTP	40	0	5	E	0	L1
XTP	41	0	5
TAP	41	96	5
TAP	41	192	5
TAP	42	0	3
TAP	42	0	4
TAP	42	192	2
TAP	42	192	5
TAP	43	0	1
TAP	43	96	1
TAP	43	192	1
TAP	44	0	0
TAP	44	0	7
TAP	44	192	1
TAP	44	192	6
TAP	45	0	6
TAP	45	96	6
TAP	45	192	7
TAP	46	0	1
TAP	46	96	1
TAP	46	192	0
TAP	47	0	7
TAP	47	96	7
TAP	47	192	0
TAP	47	288	0
BRK	48	0	1
BRK	48	0	6
XST	49	0	0
SI_	49	0	0	96	288	4
XST	49	0	7
SI_	49	0	7	96	288	3
XTP	50	192	2
XTP	50	192	5
TAP	51	0	1
TAP	51	96	1
TAP	51	192	2
TAP	51	288	3
TAP	52	0	4
TAP	52	0	5
TAP	52	96	4
TAP	52	96	5
TAP	52	192	3
TAP	52	192	6
TAP	53	0	6
TAP	53	96	6
TAP	53	192	5
TAP	53	288	4
TAP	54	0	3
TAP	54	96	3
TAP	54	192	2
TAP	54	288	2
TAP	55	0	2
TAP	55	0	3
TAP	55	96	4
TAP	55	144	4
XTP	55	240	3
XTP	55	240	5
XTP	55	336	3
XTP	55	336	5
XTP	56	192	1
XTP	56	192	7
TAP	57	0	6
TAP	57	96	6
TAP	57	192	5
TAP	57	288	4
TAP	58	0	2
TAP	58	0	3
TAP	58	96	2
TAP	58	96	3
TAP	58	192	1
TAP	58	192	4
TAP	59	0	2
TAP	59	96	2
TAP	59	192	1
TAP	59	288	0
TAP	60	0	6
TAP	60	0	7
TAP	60	96	6
TAP	60	96	7
STR	60	192	0
SCR	60	192	0	96	480	4
TAP	60	192	5
XTP	62	192	3
XTP	62	192	5
HLD	63	0	6	192
TAP	63	192	7
HLD	64	0	1	192
TAP	64	192	0
TAP	65	0	2
TAP	65	0	3
TAP	65	96	2
TAP	65	96	3
TAP	65	192	3
TAP	65	192	4
TAP	65	288	3
TAP	65	288	4
TAP	66	0	4
TAP	66	0	5
TAP	66	96	4
TAP	66	96	5
XTP	66	192	3
XTP	66	192	6
THO	67	0	0	384	C	0	L1
THO	69	0	0	384	C	0	L1
HLD	71	0	1	192
HLD	71	192	2	192
TAP	72	0	3
TAP	72	96	3
TAP	72	192	3
TAP	72	192	4
HLD	73	0	6	192
HLD	73	192	5	192
TAP	74	0	4
TAP	74	96	4
TAP	74	192	3
TAP	74	192	4
HLD	75	0	2	192
HLD	75	192	1	192
TAP	76	0	0
TAP	76	96	0
TAP	76	192	0
TAP	76	192	7
HLD	77	0	0	192
HLD	77	0	7	192
TAP	78	0	1
TAP	78	0	6
TAP	78	96	1
TAP	78	96	6
TAP	78	192	1
TAP	78	192	6
HLD	79	0	5	192
HLD	79	192	6	192
TAP	80	0	7
TAP	80	96	7
TAP	80	192	0
TAP	80	192	7
HLD	81	0	1	192
HLD	81	192	2	192
TAP	82	0	3
TAP	82	96	3
TAP	82	192	3
TAP	82	192	4
HLD	83	0	6	192
HLD	83	192	5	192
HLD	84	0	4	192
TAP	84	192	3
TAP	85	0	2
TAP	85	96	2
TAP	85	192	2
TAP	85	192	3
TAP	86	0	3
TAP	86	0	4
TAP	86	192	2
TAP	86	192	5
THO	87	0	0	336	C	1	L1
TTP	87	0	1	B	0	L1
TTP	87	0	6	B	0	L1
XST	89	0	6
SI_	89	0	6	96	288	3
XST	89	0	7
SI_	89	0	7	96	288	2
XTP	90	192	1
XTP	90	192	4
XST	91	0	0
SI_	91	0	0	96	288	5
XST	91	0	1
SI_	91	0	1	96	288	4
XTP	92	192	3
XTP	92	192	6
XHO	93	0	4	384
XHO	94	0	3	768
HLD	95	0	4	384
XTP	96	192	2
XTP	96	192	5
TAP	97	0	1
TAP	97	96	0
TAP	97	96	1
TAP	97	192	6
TAP	97	288	6
TAP	97	288	7
TAP	98	0	5
TAP	98	96	4
TAP	98	96	5
TAP	98	192	3
TAP	98	192	6
TAP	98	288	3
TAP	98	288	6
TAP	99	0	2
TAP	99	96	2
TAP	99	96	3
TAP	99	192	5
TAP	99	288	4
TAP	99	288	5
TAP	100	0	3
TAP	100	96	3
TAP	100	96	4
STR	100	192	2
SCL	100	192	2	96	480	5
XTP	102	192	3
XTP	102	192	4
TAP	103	0	4
TAP	103	0	5
TAP	103	96	4
TAP	103	96	5
TAP	103	192	3
TAP	103	192	6
TAP	104	0	2
TAP	104	0	3
TAP	104	96	2
TAP	104	96	3
TAP	104	192	1
TAP	104	192	4
TAP	105	0	0
TAP	105	96	0
TAP	105	192	7
TAP	105	288	7
TAP	106	0	0
TAP	106	0	7
TAP	106	96	0
TAP	106	96	7
TAP	106	192	1
TAP	106	192	6
TAP	106	288	2
TAP	106	288	5
BST	107	0	3
SI_	107	0	3	96	288	7
BST	107	0	4
SI_	107	0	4	96	288	0
XTP	108	192	1
XTP	108	192	6
HLD	109	0	2	192
TAP	109	192	3
HLD	110	0	5	192
TAP	110	192	4
HLD	111	0	1	192
TAP	111	192	3
TAP	112	0	3
TAP	112	0	4
TAP	112	96	3
TAP	112	96	4
TAP	112	192	2
TAP	112	192	5
THO	113	0	0	384	C	0	L1
TAP	115	0	0
TAP	115	96	0
TAP	115	192	1
TAP	115	192	7
TAP	116	0	7
TAP	116	96	7
TAP	116	192	0
TAP	116	192	6
TAP	117	0	5
TAP	117	96	4
TAP	117	96	5
XTP	117	192	3
XTP	117	240	3
BRK	117	336	2
BRK	117	336	4

T_REC_TAP	208
T_REC_BRK	6
T_REC_XTP	35
T_REC_HLD	29
T_REC_XHO	2
T_REC_STR	8
T_REC_BST	2
T_REC_XST	6
T_REC_TTP	17
T_REC_THO	4
T_REC_SLD	16
T_REC_ALL	333
T_NUM_TAP	274
T_NUM_BRK	8
T_NUM_HLD	35
T_NUM_SLD	16
T_NUM_ALL	333
T_JUDGE_TAP	282
T_JUDGE_HLD	199
T_JUDGE_SLD	16
T_JUDGE_ALL	497
TTM_EACHPAIRS	86
TTM_SCR_TAP	137000
TTM_SCR_BRK	20800
TTM_SCR_HLD	35000
TTM_SCR_SLD	24000
TTM_SCR_ALL	216800
TTM_SCR_S	209550
TTM_SCR_SS	216000
TTM_RAT_ACV	10037

