VERSION	0.00.00	1.03.00
FES_MODE	0
BPM_DEF	200.000	200.000	200.000	200.000
MET_DEF	4	4
RESOLUTION	384
CLK_DEF	384
COMPATIBLE_CODE	MA2

BPM	0	0	200.000
MET	0	0	4	4

TAP	9	0	0
TAP	10	0	0
HLD	11	0	0	384
TAP	13	0	7
TAP	14	0	7
HLD	15	0	7	384
TAP	17	0	0
TAP	18	0	0
TAP	19	0	1
TAP	20	0	1
TAP	21	0	2
TAP	22	0	2
TAP	23	0	3
XTP	24	0	3
XTP	24	0	4
TAP	25	0	4
TAP	26	0	4
TAP	27	0	5
TAP	27	192	5
TAP	28	0	5
TAP	29	0	6
TAP	30	0	6
TAP	31	0	7
TAP	31	192	7
XTP	32	0	0
XTP	32	0	7
STR	33	0	0
SI_	33	0	0	96	288	3
STR	35	0	7
SI_	35	0	7	96	288	4
STR	37	0	1
SI_	37	0	1	96	288	4
STR	39	0	6
SI_	39	0	6	96	288	3
TTP	41	0	2	B	0	L1
TTP	42	0	1	B	0	L1
TTP	43	0	0	B	0	L1
TTP	44	0	7	B	0	L1
TTP	45	0	6	B	0	L1
TTP	46	0	5	B	0	L1
THO	47	0	0	384	C	1	L1
HLD	49	0	7	384
TAP	51	0	6
TAP	51	192	6
TAP	52	0	6
TAP	52	0	7
TAP	53	0	5
TAP	53	192	5
TAP	54	0	4
TAP	54	192	4
TAP	55	0	3
TAP	55	192	3
XTP	56	0	3
XTP	56	0	4
HLD	57	0	3	384
TAP	59	0	2
TAP	59	192	2
TAP	60	0	2
TAP	60	0	3
TAP	61	0	1
TAP	61	192	1
TAP	62	0	1
TAP	63	0	0
TAP	63	192	0
TAP	64	0	0
TAP	65	0	7
TAP	65	192	7
TAP	66	0	7
STR	67	0	0
SI_	67	0	0	96	288	3
STR	69	0	4
SI_	69	0	4	96	288	7
TAP	71	0	0
TAP	71	192	0
TAP	72	0	0
TAP	73	0	1
TAP	73	192	1
TAP	74	0	1
TAP	75	0	2
TAP	75	192	2
TAP	76	0	2
HLD	77	0	3	384
TAP	79	0	4
TAP	79	192	4
TAP	80	0	4
TAP	81	0	5
TAP	81	192	5
TAP	82	0	5
TAP	83	0	6
TAP	83	192	6
TAP	84	0	6
TAP	85	0	7
TAP	85	192	7
TAP	86	0	0
TAP	86	0	7
BRK	87	0	0
BRK	87	0	7
THO	89	0	0	336	C	1	L1
TAP	91	0	7
TAP	91	192	7
HLD	92	0	7	192
TAP	93	0	6
TAP	93	192	6
TAP	94	0	5
TAP	94	192	5
XTP	95	0	3
XTP	95	0	4
THO	97	0	0	336	C	1	L1
TAP	99	0	0
TAP	99	192	0
HLD	100	0	0	192
TAP	101	0	1
TAP	101	192	1
TAP	102	0	2
TAP	102	192	2
TAP	103	0	3
TAP	103	192	3
TAP	104	0	3
TAP	104	0	4
TAP	105	0	4
TAP	105	192	4
TAP	106	0	5
TAP	106	192	5
HLD	107	0	6	288
HLD	107	0	7	288
TAP	109	0	0
TAP	109	192	0
TAP	110	0	7
TAP	110	192	7
STR	111	0	0
SI_	111	0	0	96	288	4
TAP	113	0	7
TAP	113	192	7
XTP	114	0	0
XTP	114	0	7
TAP	115	0	0
TAP	115	192	0
TAP	116	0	1
TAP	116	192	1
HLD	117	0	2	336
HLD	117	0	3	336

T_REC_TAP	95
T_REC_BRK	2
T_REC_XTP	10
T_REC_HLD	11
T_REC_XHO	0
T_REC_STR	7
T_REC_BST	0
T_REC_XST	0
T_REC_TTP	6
T_REC_THO	3
T_REC_SLD	7
T_REC_ALL	141
T_NUM_TAP	118
T_NUM_BRK	2
T_NUM_HLD	14
T_NUM_SLD	7
T_NUM_ALL	141
T_JUDGE_TAP	120
T_JUDGE_HLD	96
T_JUDGE_SLD	7
T_JUDGE_ALL	223
TTM_EACHPAIRS	12
TTM_SCR_TAP	59000
TTM_SCR_BRK	5200
TTM_SCR_HLD	14000
TTM_SCR_SLD	10500
TTM_SCR_ALL	88700
TTM_SCR_S	85850
TTM_SCR_SS	88500
TTM_RAT_ACV	10022

