VERSION	0.00.00	1.03.00
FES_MODE	0
BPM_DEF	155.000	155.000	155.000	155.000
MET_DEF	4	4
RESOLUTION	384
CLK_DEF	384
COMPATIBLE_CODE	MA2

BPM	0	0	155.000
MET	0	0	4	4

STR	1	0	4
SI_	1	0	4	96	192	0
TAP	2	0	3
TAP	2	48	3
TAP	2	96	4
TAP	2	144	4
HLD	2	192	3	96
HLD	2	288	4	96
TAP	3	0	2
TAP	3	48	2
TAP	3	144	2
TAP	3	144	3
TAP	3	240	3
TAP	3	240	4
STR	3	336	4
SCL	3	336	4	96	96	2
TAP	3	336	5
TAP	4	192	4
TAP	4	240	4
TAP	4	288	4
TAP	4	336	4
HLD	5	0	4	96
TTP	5	96	2	E	0	M1
TTP	5	144	6	E	0	M1
TTP	5	192	4	E	0	M1
TTP	5	240	5	E	0	M1
TTP	5	256	4	B	0	M1
TTP	5	272	3	B	0	M1
TTP	5	288	3	E	0	M1
TAP	5	336	6
TAP	6	48	5
TAP	6	96	5
HLD	6	144	4	96
HLD	6	240	3	96
HLD	6	336	2	96
HLD	7	48	3	96
STR	7	144	4
SCL	7	144	4	96	96	2
TTP	8	0	4	E	0	M1
TTP	8	48	0	C	0	M1
TTP	8	96	2	E	0	M1
TTP	8	120	3	E	0	M1
TTP	8	168	6	E	0	M1
TTP	8	192	5	E	0	M1
TTP	8	240	0	B	0	M1
TTP	8	264	1	B	0	M1
TTP	8	312	7	B	0	M1
TTP	8	336	6	B	0	M1
TAP	9	0	3
TAP	9	24	4
TAP	9	48	3
TAP	9	96	5
TAP	9	120	4
TAP	9	168	2
TAP	9	192	3
TAP	9	240	6
TAP	9	264	4
TAP	9	312	1
TAP	9	336	3
TAP	10	0	2
TAP	10	0	5
TAP	10	48	3
TAP	10	96	4
TAP	10	144	3
TAP	10	192	2
TAP	10	192	5
TAP	10	288	2
TAP	10	288	4
TAP	11	0	3
TAP	11	0	5
HLD	11	48	3	96
HLD	11	144	4	96
HLD	11	240	3	96
STR	11	336	2
SCR	11	336	2	96	96	5
TAP	12	192	3
TAP	12	240	3
TAP	12	288	3
TAP	12	336	3
HLD	13	0	3	96
TTP	13	96	6	E	0	M1
TTP	13	144	2	E	0	M1
TTP	13	192	4	E	0	M1
TTP	13	240	3	E	0	M1
TTP	13	256	3	B	0	M1
TTP	13	272	4	B	0	M1
TTP	13	288	5	E	0	M1
TAP	13	336	1
TAP	14	0	6
TAP	14	48	6
TAP	14	96	5
HLD	14	144	3	96
TAP	14	144	4
HLD	14	240	2	96
HLD	14	336	3	96
HLD	15	48	4	96
STR	15	144	5
SCL	15	144	5	96	96	2
TTP	16	0	4	E	0	M1
TTP	16	48	0	C	0	M1
TTP	16	96	6	E	0	M1
TTP	16	120	5	E	0	M1
TTP	16	168	2	E	0	M1
TTP	16	192	3	E	0	M1
TTP	16	240	7	B	0	M1
TTP	16	264	6	B	0	M1
TTP	16	312	0	B	0	M1
TTP	16	336	1	B	0	M1
TAP	17	0	4
TAP	17	24	3
TAP	17	48	4
TAP	17	96	2
TAP	17	120	3
TAP	17	168	5
TAP	17	192	4
TAP	17	240	1
TAP	17	264	3
TAP	17	312	6
TAP	17	336	4
XHO	18	0	1	48
XHO	18	0	5	48
TAP	18	96	1
TAP	18	96	5
TAP	18	144	0
TAP	18	144	4
STR	18	192	3
SI_	18	192	3	96	48	6
STR	18	192	7
SI_	18	192	7	96	48	2
TAP	18	288	3
TAP	18	288	7
XHO	19	0	2	48
XHO	19	0	6	48
TAP	19	96	2
TAP	19	96	6
TAP	19	144	3
TAP	19	144	7
STR	19	192	0
SI_	19	192	0	96	48	5
STR	19	192	4
SI_	19	192	4	96	48	1
TAP	19	288	0
TAP	19	288	4
XTP	20	0	1
XTP	20	0	5
TAP	20	48	3
XTP	20	96	2
XTP	20	96	6
TAP	20	144	4
XTP	20	192	1
XTP	20	192	5
TAP	20	240	3
TAP	20	240	4
XTP	20	288	2
XTP	20	288	6
TAP	20	336	3
TAP	20	336	4
XTP	21	0	1
TAP	21	24	3
TAP	21	48	2
TAP	21	72	7
TAP	21	96	4
TAP	21	120	5
TAP	21	144	0
TAP	21	168	6
HLD	21	192	2	96
TAP	21	288	4
TAP	21	312	4
TAP	21	336	3
XTP	22	0	1
XTP	22	0	5
TAP	22	48	6
TAP	22	72	7
TAP	22	96	6
TAP	22	120	0
TAP	22	144	6
TAP	22	168	1
TAP	22	192	6
TAP	22	204	5
TAP	22	216	4
TAP	22	240	2
HLD	22	264	2	48
TAP	22	312	3
TAP	22	336	2
TAP	23	0	0
TAP	23	0	4
TAP	23	48	1
TAP	23	72	3
TAP	23	96	2
TAP	23	120	4
TAP	23	144	3
TAP	23	168	5
TAP	23	192	4
TAP	23	192	6
TAP	23	240	0
TAP	23	240	1
TAP	23	288	6
TAP	23	288	7
TAP	23	336	1
TAP	23	336	3
XTP	24	0	2
XTP	24	0	6
TAP	24	48	1
TAP	24	72	0
TAP	24	96	1
TAP	24	120	7
TAP	24	144	1
TAP	24	168	6
TAP	24	192	1
TAP	24	204	2
TAP	24	216	3
TAP	24	240	5
HLD	24	264	5	48
TAP	24	312	4
TAP	24	336	5
TAP	25	0	3
TAP	25	0	7
TAP	25	48	6
TAP	25	72	4
TAP	25	96	5
TAP	25	120	3
TAP	25	144	4
TAP	25	168	2
HLD	25	192	1	48
TAP	25	192	3
HLD	25	240	7	48
HLD	25	288	5	48
TAP	25	336	3
XTP	26	0	0
TAP	26	24	7
TAP	26	48	0
TAP	26	72	7
TAP	26	96	0
TAP	26	120	7
TAP	26	144	0
TAP	26	168	7
TAP	26	192	0
TAP	26	204	1
TAP	26	216	2
TAP	26	240	4
TAP	26	264	4
TAP	26	288	1
TAP	26	300	2
TAP	26	312	3
TAP	26	336	6
TAP	26	348	5
TAP	26	360	4
TAP	27	0	0
TAP	27	24	7
TAP	27	48	0
TAP	27	72	7
TAP	27	96	0
TAP	27	120	7
TAP	27	144	0
TAP	27	168	7
TAP	27	192	0
XTP	27	192	7
TAP	27	240	5
TAP	27	240	6
TAP	27	288	3
TAP	27	288	4
TAP	27	336	1
TAP	27	336	2
TAP	28	0	0
TAP	28	16	7
TAP	28	32	0
TAP	28	48	7
TAP	28	64	0
TAP	28	80	7
TAP	28	96	0
TAP	28	112	7
TAP	28	128	0
TAP	28	144	7
TAP	28	160	0
TAP	28	176	7
TAP	28	192	1
TAP	28	208	6
TAP	28	224	1
TAP	28	240	6
TAP	28	256	1
TAP	28	272	6
TAP	28	288	2
TAP	28	304	5
TAP	28	320	2
TAP	28	336	5
TAP	28	352	2
TAP	28	368	5
TAP	29	0	3
TAP	29	16	4
TAP	29	32	3
TAP	29	48	4
TAP	29	64	3
TAP	29	80	4
TAP	29	96	2
TAP	29	112	5
TAP	29	128	2
TAP	29	144	5
TAP	29	160	2
TAP	29	176	5
STR	29	192	1
SI_	29	192	1	96	48	5
XTP	30	0	3
XTP	30	0	6
TAP	30	48	4
TAP	30	48	5
TAP	30	72	4
TAP	30	72	5
TAP	30	120	3
TAP	30	120	6
TAP	30	144	3
TAP	30	144	6
HLD	30	192	7	48
TTP	30	288	0	C	0	M1
XTP	31	0	4
XTP	31	0	5
TAP	31	48	3
TAP	31	48	6
TAP	31	72	3
TAP	31	72	6
TAP	31	120	4
TAP	31	120	5
TAP	31	144	4
TAP	31	144	5
TAP	31	192	6
TAP	31	240	6
BRK	31	288	5
BRK	31	288	7
XTP	32	0	1
XTP	32	0	4
TAP	32	48	2
TAP	32	48	3
TAP	32	72	2
TAP	32	72	3
TAP	32	120	1
TAP	32	120	4
TAP	32	144	1
TAP	32	144	4
HLD	32	192	0	48
TTP	32	288	0	E	0	M1
TTP	32	288	4	E	0	M1
XTP	33	0	2
XTP	33	0	3
TAP	33	48	1
TAP	33	48	4
TAP	33	72	1
TAP	33	72	4
TAP	33	120	2
TAP	33	120	3
TAP	33	144	2
TAP	33	144	3
BRK	33	192	0
BRK	33	240	1
BRK	33	288	2
BRK	33	336	3
TAP	34	0	1
TAP	34	0	4
TAP	34	48	2
TAP	34	72	3
TAP	34	96	2
TAP	34	120	3
TAP	34	144	2
TAP	34	168	3
TTP	34	192	3	E	0	M1
TTP	34	208	3	B	0	M1
TTP	34	224	4	B	0	M1
TTP	34	240	5	E	0	M1
TTP	34	264	0	C	0	M1
TAP	34	312	6
TAP	34	336	6
TAP	35	0	7
TAP	35	48	5
TAP	35	72	4
TAP	35	96	5
TAP	35	120	4
TAP	35	144	5
TAP	35	168	4
TTP	35	192	5	E	0	M1
TTP	35	208	4	B	0	M1
TTP	35	224	3	B	0	M1
TTP	35	240	3	E	0	M1
TTP	35	264	0	C	0	M1
TAP	35	312	1
TAP	35	336	1
TAP	36	0	0
TAP	36	48	1
TAP	36	72	3
TAP	36	96	1
TAP	36	120	3
TAP	36	144	1
TAP	36	168	3
TTP	36	192	3	E	0	M1
TTP	36	208	3	B	0	M1
TTP	36	224	4	B	0	M1
TTP	36	240	5	E	0	M1
TTP	36	264	0	C	0	M1
TAP	36	312	6
TAP	36	336	6
TAP	37	0	7
TAP	37	48	6
TAP	37	72	4
TAP	37	96	6
TAP	37	120	4
TAP	37	144	6
TAP	37	168	4
HLD	37	192	5	48
HLD	37	240	4	48
HLD	37	288	3	48
TAP	37	336	2
BST	38	0	1
SUR	38	0	1	96	576	4
BRK	38	0	4
STR	40	0	6
SUL	40	0	6	96	576	3
HLD	42	0	2	192
TAP	42	192	3
HLD	42	288	4	192
TAP	43	96	3
TTP	43	192	5	B	0	M1
TTP	43	192	5	E	0	M1
TTP	43	288	2	B	0	M1
TTP	43	288	3	E	0	M1
HLD	44	0	5	192
TAP	44	192	4
HLD	44	288	2	144
TAP	45	48	3
STR	45	96	3
SF_	45	96	3	96	96	7
BRK	46	0	1
BRK	46	0	5
TAP	46	96	5
TAP	46	120	3
TAP	46	144	3
TAP	46	192	2
TAP	46	192	5
TAP	46	264	3
TAP	46	288	5
TAP	46	336	3
TAP	47	0	5
TAP	47	48	4
TAP	47	72	4
TAP	47	96	5
TAP	47	144	3
TAP	47	192	3
TAP	47	192	5
TAP	47	240	3
TAP	47	288	4
TAP	47	288	5
TAP	47	336	3
TAP	48	0	2
TAP	48	0	5
TAP	48	96	2
TAP	48	120	4
TAP	48	144	4
TAP	48	192	2
TAP	48	192	5
TAP	48	264	4
TAP	48	288	2
TAP	48	336	4
TAP	49	0	2
TAP	49	48	3
TAP	49	72	3
TAP	49	96	2
TAP	49	144	4
TAP	49	192	2
HLD	49	192	5	48
TAP	49	288	2
HLD	49	288	4	48
TAP	50	0	2
TTP	50	0	5	E	0	M1
TTP	50	96	5	B	0	M1
TAP	50	120	3
TAP	50	144	3
TAP	50	192	2
TTP	50	192	6	B	0	M1
TAP	50	264	3
TTP	50	288	7	E	0	M1
TAP	50	336	2
TTP	51	0	5	E	0	M1
TAP	51	48	3
TAP	51	72	3
TTP	51	96	5	B	0	M1
TAP	51	144	2
TTP	51	192	6	B	0	M1
TAP	51	216	3
TAP	51	240	3
TAP	51	288	2
TTP	51	288	7	E	0	M1
TAP	51	336	3
TTP	52	0	3	E	0	M1
TAP	52	0	5
TTP	52	96	2	B	0	M1
TAP	52	120	4
TAP	52	144	4
TTP	52	192	1	B	0	M1
TAP	52	192	5
TAP	52	264	4
TTP	52	288	1	E	0	M1
TAP	52	336	5
TTP	53	0	3	E	0	M1
TAP	53	48	4
TAP	53	72	4
TTP	53	96	2	B	0	M1
TAP	53	144	5
TAP	53	192	1
TAP	53	192	6
TAP	53	240	3
TAP	53	240	4
BRK	53	288	0
BRK	53	288	7
XST	54	0	2
SXR	54	0	2	96	144	5
XTP	54	0	3
TAP	54	96	6
TAP	54	144	5
STR	54	192	4
SI_	54	192	4	96	48	7
XTP	54	288	4
XTP	55	0	4
XST	55	0	5
SXL	55	0	5	96	144	2
TAP	55	96	1
TAP	55	144	2
STR	55	192	3
SI_	55	192	3	96	48	0
XTP	55	288	3
XTP	56	0	0
XTP	56	0	7
TAP	56	48	0
TAP	56	96	0
TAP	56	96	1
TAP	56	144	1
TAP	56	192	1
TAP	56	192	2
TAP	56	240	2
TAP	56	288	2
TAP	56	288	3
TAP	56	336	3
TAP	57	0	4
TAP	57	24	4
TAP	57	48	5
TAP	57	72	5
TAP	57	96	6
TAP	57	120	6
TAP	57	144	7
TAP	57	168	7
STR	57	192	0
SI_	57	192	0	96	48	4
HLD	58	0	4	48
TAP	58	0	5
TAP	58	48	6
TAP	58	72	4
TAP	58	96	5
TAP	58	120	4
TAP	58	144	6
HLD	58	192	4	48
TAP	58	192	5
TAP	58	240	6
TAP	58	264	4
TAP	58	288	5
TAP	58	312	4
TAP	58	336	6
HLD	59	0	4	48
TAP	59	0	5
TAP	59	48	6
TAP	59	72	4
TAP	59	96	5
TAP	59	120	4
TAP	59	144	6
TAP	59	192	4
TAP	59	192	5
TAP	59	216	4
TAP	59	216	5
TAP	59	264	5
TAP	59	288	3
TAP	59	312	4
TAP	59	336	2
TAP	60	0	2
HLD	60	0	3	48
TAP	60	48	1
TAP	60	72	3
TAP	60	96	2
TAP	60	120	3
TAP	60	144	1
TAP	60	192	2
HLD	60	192	3	48
TAP	60	240	1
TAP	60	264	3
TAP	60	288	2
TAP	60	312	3
TAP	60	336	1
TAP	61	0	2
HLD	61	0	3	48
TAP	61	48	1
TAP	61	72	3
TAP	61	96	2
TAP	61	120	3
TAP	61	144	1
TAP	61	192	2
STR	61	192	3
SF_	61	192	3	96	48	7
XHO	62	0	1	24
XHO	62	0	5	24
XHO	62	48	2	24
XHO	62	48	3	24
XHO	62	96	5	24
XHO	62	96	7	24
XHO	62	144	1	24
XHO	62	144	2	24
XHO	62	192	4	24
XHO	62	192	6	24
XHO	62	240	0	24
XHO	62	240	3	24
XHO	62	288	2	24
XHO	62	288	4	24
XTP	62	336	1
XTP	62	336	5
XTP	62	360	2
XTP	62	360	6
XTP	63	0	3
XTP	63	0	7
XHO	63	48	4	24
XHO	63	48	6	24
XHO	63	96	0	24
XHO	63	96	1	24
XHO	63	144	5	24
XHO	63	144	6	24
XST	63	192	3
SSR	63	192	3	96	48	7
XTP	63	192	7
XTP	63	208	2
XTP	63	208	6
XTP	63	224	1
XTP	63	224	5
XTP	63	240	0
XTP	63	240	4
XHO	64	0	2	24
XHO	64	0	6	24
XHO	64	48	4	24
XHO	64	48	5	24
XHO	64	96	0	24
XHO	64	96	2	24
XHO	64	144	5	24
XHO	64	144	6	24
XHO	64	192	1	24
XHO	64	192	3	24
XHO	64	240	4	24
XHO	64	240	7	24
XHO	64	288	3	24
XHO	64	288	5	24
XTP	64	336	2
XTP	64	336	6
XTP	64	360	1
XTP	64	360	5
XTP	65	0	0
XTP	65	0	4
XHO	65	48	1	24
XHO	65	48	3	24
XHO	65	96	6	24
XHO	65	96	7	24
XHO	65	144	1	24
XHO	65	144	2	24
XST	65	192	0
SF_	65	192	0	96	48	4
XTP	65	192	4
TAP	66	0	4
TAP	66	0	6
TAP	66	48	7
TAP	66	72	7
TAP	66	96	4
TAP	66	120	7
TAP	66	168	7
HLD	66	192	4	48
HLD	66	240	5	48
HLD	66	288	4	48
HLD	66	336	3	48
TAP	67	0	2
TAP	67	48	0
TAP	67	72	0
TAP	67	96	3
TAP	67	120	0
TAP	67	168	0
HLD	67	192	3	48
HLD	67	240	2	48
HLD	67	288	1	48
HLD	67	336	0	48
TAP	68	0	7
TAP	68	48	4
TAP	68	72	4
TAP	68	96	7
TAP	68	120	4
TAP	68	168	4
HLD	68	192	6	48
HLD	68	240	7	48
HLD	68	288	0	48
HLD	68	336	1	48
TAP	69	0	0
TAP	69	48	3
TAP	69	72	3
TAP	69	96	0
TAP	69	120	3
TAP	69	168	3
STR	69	192	0
SF_	69	192	0	96	48	4
XHO	70	0	1	24
XHO	70	0	5	24
XHO	70	48	2	24
XHO	70	48	3	24
XHO	70	96	4	24
XHO	70	96	7	24
XHO	70	144	0	24
XHO	70	144	5	24
XHO	70	192	1	24
XHO	70	192	2	24
XHO	70	240	6	24
XHO	70	240	7	24
XHO	70	288	3	24
XHO	70	288	5	24
XTP	70	336	2
XTP	70	336	6
XTP	70	360	1
XTP	70	360	5
XTP	71	0	0
XTP	71	0	4
XHO	71	48	3	24
XHO	71	48	5	24
XHO	71	96	6	24
XHO	71	96	7	24
XHO	71	144	2	24
XHO	71	144	3	24
XTP	71	192	1
XST	71	192	5
SSR	71	192	5	96	48	1
XTP	71	208	2
XTP	71	208	6
XTP	71	224	3
XTP	71	224	7
XTP	71	240	0
XTP	71	240	4
XHO	72	0	2	24
XHO	72	0	6	24
XHO	72	48	4	24
XHO	72	48	5	24
XHO	72	96	0	24
XHO	72	96	3	24
XHO	72	144	2	24
XHO	72	144	7	24
XHO	72	192	5	24
XHO	72	192	6	24
XHO	72	240	0	24
XHO	72	240	1	24
XHO	72	288	2	24
XHO	72	288	4	24
XST	72	336	1
SCL	72	336	1	96	168	3
XST	72	336	5
SCR	72	336	5	96	168	3
BRK	73	288	1
BRK	73	288	6
XTP	74	0	0
XTP	74	0	7
TAP	74	8	1
TAP	74	16	2
TAP	74	24	3
XST	74	72	0
SCR	74	72	0	96	40	5
STR	74	80	1
SCR	74	80	1	96	40	6
STR	74	88	2
SCR	74	88	2	96	40	7
STR	74	96	3
SCR	74	96	3	96	40	0
XTP	74	144	0
TAP	74	240	3
TAP	74	288	2
TAP	74	288	4
TAP	74	336	3
TAP	74	336	5
TAP	75	0	4
TAP	75	0	6
TAP	75	48	1
TAP	75	72	0
TAP	75	72	1
TAP	75	120	2
TAP	75	144	2
TAP	75	144	3
TAP	75	192	3
TAP	75	192	4
TAP	75	240	5
TAP	75	264	4
TAP	75	288	3
TAP	75	288	6
TAP	75	336	7
TAP	76	0	0
TAP	76	0	5
TAP	76	48	1
TAP	76	72	1
TAP	76	72	2
TAP	76	120	4
TAP	76	144	3
TAP	76	144	4
TAP	76	192	5
TAP	76	216	5
TAP	76	240	0
TAP	76	264	6
TAP	76	288	1
TAP	76	312	7
TAP	76	336	2
TAP	76	360	0
TAP	77	0	3
TAP	77	48	2
TAP	77	48	4
TAP	77	72	2
TAP	77	72	4
TAP	77	120	3
TAP	77	120	6
TAP	77	144	3
TAP	77	144	6
STR	77	192	0
SF_	77	192	0	96	48	4
TAP	77	192	4
BRK	77	288	0
XTP	78	0	0
XTP	78	0	7
TAP	78	8	6
TAP	78	16	5
TAP	78	24	4
XST	78	72	7
SCL	78	72	7	96	40	2
STR	78	80	6
SCL	78	80	6	96	40	1
STR	78	88	5
SCL	78	88	5	96	40	0
STR	78	96	4
SCL	78	96	4	96	40	7
XTP	78	144	7
TAP	78	240	4
TAP	78	288	3
TAP	78	288	5
TAP	78	336	2
TAP	78	336	4
TAP	79	0	1
TAP	79	0	3
TAP	79	48	7
TAP	79	72	7
STR	79	96	1
SI_	79	96	1	96	48	5
TAP	79	120	5
TAP	79	144	3
TAP	79	168	7
TAP	79	192	1
TAP	79	288	4
TAP	79	288	6
TAP	79	336	7
TAP	79	360	0
TAP	80	0	1
TAP	80	0	6
TAP	80	48	2
TAP	80	72	2
TAP	80	72	3
TAP	80	120	5
TAP	80	144	4
TAP	80	144	5
TAP	80	192	0
TAP	80	216	0
TAP	80	240	6
TAP	80	264	3
TAP	80	288	5
TAP	80	312	2
TAP	80	336	4
TAP	80	360	1
HLD	81	0	0	96
STR	81	0	3
SI_	81	0	3	96	96	7
TAP	81	144	2
XST	81	192	3
SF_	81	192	3	96	48	7
TTP	81	288	0	C	1	M1
BRK	82	0	1
BST	82	0	6
SCR	82	0	6	96	480	5
STR	83	192	3
SI_	83	192	3	96	48	7
TAP	84	0	0
TAP	84	0	5
TAP	84	48	1
TAP	84	72	1
TAP	84	72	3
TAP	84	120	6
TAP	84	144	4
TAP	84	144	6
TAP	84	192	0
TAP	84	204	7
TAP	84	216	0
TAP	84	240	6
TAP	84	264	3
TAP	84	288	5
TAP	84	312	2
TAP	84	336	4
TAP	84	360	1
TAP	85	0	3
TAP	85	48	2
TAP	85	48	5
TAP	85	72	2
TAP	85	72	5
TAP	85	120	0
TAP	85	120	4
TAP	85	144	0
TAP	85	144	4
TAP	85	192	3
STR	85	192	7
SF_	85	192	7	96	48	3
BRK	85	288	7
XTP	86	0	0
XTP	86	0	7
TAP	86	8	1
TAP	86	16	2
TAP	86	24	3
XST	86	72	0
SCR	86	72	0	96	40	5
STR	86	80	1
SCR	86	80	1	96	40	6
STR	86	88	2
SCR	86	88	2	96	40	7
STR	86	96	3
SCR	86	96	3	96	40	0
XTP	86	144	0
TAP	86	240	3
TAP	86	288	1
TAP	86	288	4
TAP	86	336	2
TAP	86	336	5
TAP	87	0	3
TAP	87	0	6
TAP	87	48	7
TAP	87	72	7
TAP	87	96	0
TAP	87	108	1
TAP	87	120	2
TAP	87	132	3
TAP	87	144	0
TAP	87	156	7
TAP	87	168	6
TAP	87	180	5
BST	87	192	0
SCR	87	192	0	96	48	3
BST	87	192	4
SCR	87	192	4	96	48	7
TAP	87	288	0
TAP	87	288	4
TAP	88	0	3
TAP	88	0	7
TAP	88	48	6
TAP	88	72	4
TAP	88	72	6
TAP	88	120	1
TAP	88	144	1
TAP	88	144	3
TAP	88	192	6
TAP	88	204	7
TAP	88	216	6
TAP	88	240	1
TAP	88	252	0
TAP	88	264	1
TAP	88	288	7
TAP	88	300	6
TAP	88	312	5
TAP	88	324	4
TAP	88	336	7
TAP	88	348	0
TAP	88	360	1
TAP	88	372	2
XTP	89	0	3
XHO	89	0	7	96
TAP	89	96	0
TAP	89	144	2
TAP	89	168	5
STR	89	192	3
SCR	89	192	3	96	96	3
TAP	89	216	4
TAP	89	240	3
TAP	89	264	4
TTP	89	288	4	E	0	M1
TTP	89	300	5	E	0	M1
TTP	89	312	6	E	0	M1
TTP	89	324	7	E	0	M1
TTP	89	336	0	E	0	M1
TTP	89	348	1	E	0	M1
TTP	89	360	2	E	0	M1
TTP	89	372	3	E	0	M1
TTP	90	0	0	C	1	M1
TTP	90	0	4	E	0	M1

T_REC_TAP	598
T_REC_BRK	16
T_REC_XTP	72
T_REC_HLD	51
T_REC_XHO	79
T_REC_STR	32
T_REC_BST	4
T_REC_XST	11
T_REC_TTP	81
T_REC_THO	0
T_REC_SLD	47
T_REC_ALL	991
T_NUM_TAP	794
T_NUM_BRK	20
T_NUM_HLD	130
T_NUM_SLD	47
T_NUM_ALL	991
T_JUDGE_TAP	814
T_JUDGE_HLD	159
T_JUDGE_SLD	47
T_JUDGE_ALL	1020
TTM_EACHPAIRS	188
TTM_SCR_TAP	397000
TTM_SCR_BRK	52000
TTM_SCR_HLD	130000
TTM_SCR_SLD	70500
TTM_SCR_ALL	649500
TTM_SCR_S	628100
TTM_SCR_SS	647500
TTM_RAT_ACV	10030

