VERSION	0.00.00	1.03.00
FES_MODE	0
BPM_DEF	155.000	155.000	155.000	155.000
MET_DEF	4	4
RESOLUTION	384
CLK_DEF	384
COMPATIBLE_CODE	MA2

BPM	0	0	155.000
MET	0	0	4	4

STR	2	0	0
SI_	2	0	0	96	288	3
STR	3	0	7
SI_	3	0	7	96	288	4
HLD	4	0	2	192
TAP	4	192	4
TAP	4	240	4
TAP	4	288	3
TAP	4	336	3
HLD	5	0	5	192
TAP	5	192	4
TAP	5	288	4
TAP	5	288	5
STR	6	0	3
SCL	6	0	3	96	288	0
STR	7	0	7
SCL	7	0	7	96	288	4
THO	8	0	0	384	C	0	M1
TAP	9	192	1
TAP	9	192	6
STR	10	0	0
SCR	10	0	0	96	288	3
TAP	10	192	7
TAP	10	288	7
STR	11	0	7
SCL	11	0	7	96	288	4
TAP	11	192	3
TAP	11	288	3
HLD	12	0	2	192
TAP	12	96	3
TAP	12	192	4
TAP	12	240	4
TAP	12	288	3
TAP	12	336	3
HLD	13	0	5	192
TAP	13	96	4
TAP	13	192	3
TAP	13	288	2
TAP	13	288	4
STR	14	0	1
SCR	14	0	1	96	288	4
TAP	14	192	6
TAP	14	288	5
HLD	15	0	5	384
TAP	15	192	4
TAP	15	288	3
TAP	16	0	2
TAP	16	48	2
TAP	16	96	3
TAP	16	144	3
TAP	16	192	4
TAP	16	240	4
TAP	16	288	5
TAP	16	336	5
TAP	17	0	2
TAP	17	48	2
TAP	17	96	6
TAP	17	144	6
TAP	17	192	0
TAP	17	240	0
BRK	17	288	0
BRK	17	288	7
XHO	18	0	1	192
HLD	18	0	3	96
TAP	18	144	3
TAP	18	192	3
TAP	18	288	3
TAP	18	288	4
HLD	19	0	4	96
XHO	19	0	6	192
TAP	19	144	4
TAP	19	192	4
TAP	19	288	0
TAP	19	288	7
TAP	20	0	1
TAP	20	48	1
TAP	20	96	3
TAP	20	144	2
TAP	20	192	5
TAP	20	240	5
TAP	20	288	4
TAP	20	336	6
TAP	21	0	0
TAP	21	24	7
TAP	21	48	0
TAP	21	72	7
TAP	21	96	0
TAP	21	120	7
TAP	21	144	0
XTP	21	192	1
XTP	21	192	6
TAP	22	0	3
TAP	22	0	4
TAP	22	48	2
TAP	22	72	3
TAP	22	120	3
TAP	22	144	1
TAP	22	192	0
TAP	22	192	1
TAP	22	240	0
TAP	22	240	1
TAP	22	288	7
TAP	22	336	7
TAP	23	0	3
TAP	23	0	6
TAP	23	48	5
TAP	23	72	4
TAP	23	120	4
TAP	23	144	6
TAP	23	192	6
TAP	23	192	7
TAP	23	240	0
TAP	23	240	5
XTP	23	288	1
XTP	23	288	4
TAP	24	0	3
TAP	24	0	4
TAP	24	48	5
TAP	24	72	4
TAP	24	120	4
TAP	24	144	6
TAP	24	192	6
TAP	24	192	7
TAP	24	240	6
TAP	24	240	7
TAP	24	288	0
TAP	24	336	0
HLD	25	0	1	48
HLD	25	0	3	48
HLD	25	72	2	48
HLD	25	72	4	48
XTP	25	144	3
XTP	25	144	5
TTP	25	192	0	C	0	M1
TAP	26	0	0
TAP	26	48	0
TAP	26	72	7
TAP	26	120	7
TAP	26	144	5
TAP	26	192	5
TAP	26	216	7
TAP	26	264	7
XTP	26	288	1
XTP	26	336	2
TAP	27	0	4
TAP	27	48	4
TAP	27	72	3
TAP	27	120	3
TAP	27	144	1
TAP	27	192	1
TAP	27	216	3
TAP	27	264	3
BRK	27	288	5
TAP	28	0	0
TAP	28	24	7
TAP	28	48	0
TAP	28	72	7
TAP	28	96	1
TAP	28	120	6
TAP	28	144	1
TAP	28	168	6
TAP	28	192	2
TAP	28	216	5
TAP	28	240	2
TAP	28	264	5
TAP	28	288	3
TAP	28	312	4
TAP	28	336	3
TAP	28	360	4
TAP	29	0	3
TAP	29	24	2
TAP	29	48	1
TAP	29	72	0
TAP	29	96	7
TAP	29	120	6
TAP	29	144	5
TAP	29	168	4
BRK	29	192	3
HLD	30	0	2	48
HLD	30	72	1	48
HLD	30	72	3	48
TAP	30	144	1
TAP	30	144	3
XTP	30	192	2
XTP	30	192	3
BRK	30	288	0
HLD	31	0	5	48
HLD	31	72	4	48
HLD	31	72	6	48
TAP	31	144	4
TAP	31	144	6
XTP	31	192	7
XTP	31	240	7
XTP	31	288	4
XTP	31	288	6
HLD	32	0	2	48
HLD	32	72	1	48
HLD	32	72	3	48
TAP	32	144	1
TAP	32	144	3
XTP	32	192	2
XTP	32	192	3
BRK	32	288	1
HLD	33	0	5	48
HLD	33	72	4	48
HLD	33	72	6	48
TAP	33	144	4
TAP	33	144	6
XTP	33	192	0
XTP	33	240	1
XTP	33	288	2
XTP	33	336	3
TAP	34	0	4
TAP	34	48	4
TAP	34	96	3
TAP	34	144	3
TAP	34	192	5
TAP	34	240	5
TAP	34	288	3
TAP	34	336	4
TAP	35	0	2
TAP	35	48	2
TAP	35	96	4
TAP	35	144	4
TAP	35	192	3
TAP	35	240	3
TAP	35	288	4
TAP	35	336	3
TAP	36	0	5
TAP	36	48	5
TAP	36	96	3
TAP	36	144	3
TAP	36	192	4
TAP	36	240	4
TAP	36	288	2
TAP	36	336	4
TAP	37	0	3
TAP	37	48	3
TAP	37	96	5
TAP	37	144	5
TAP	37	192	2
TAP	37	240	4
TAP	37	288	3
TAP	37	336	5
BRK	38	0	4
HLD	40	0	3	768
TAP	41	0	4
TAP	41	192	4
HLD	42	0	5	192
TAP	42	144	4
TAP	42	192	4
HLD	42	288	3	192
TAP	42	288	4
TAP	43	48	4
TAP	43	96	4
TAP	43	192	2
TAP	43	192	5
TAP	43	288	3
TAP	43	288	4
TAP	44	0	3
HLD	44	0	5	192
TAP	44	144	4
TAP	44	192	4
HLD	44	288	3	144
HLD	44	288	4	144
TAP	45	96	3
TAP	45	96	4
TAP	45	192	2
TAP	45	192	5
HLD	46	0	4	288
TTP	46	96	3	E	0	M1
TTP	46	192	2	E	0	M1
TTP	46	288	1	E	0	M1
HLD	47	0	0	288
TTP	47	96	7	E	0	M1
TTP	47	192	6	E	0	M1
TTP	47	288	5	E	0	M1
HLD	48	0	4	288
TTP	48	96	2	B	0	M1
TTP	48	192	0	C	0	M1
TTP	48	288	5	B	0	M1
TTP	49	0	4	E	0	M1
TTP	49	96	0	C	0	M1
TTP	49	192	1	E	0	M1
TTP	49	192	7	E	0	M1
TTP	49	288	2	E	0	M1
TTP	49	288	6	E	0	M1
HLD	50	0	3	288
TTP	50	96	3	E	0	M1
TTP	50	192	5	E	0	M1
TTP	50	288	0	C	0	M1
HLD	51	0	7	288
TTP	51	96	7	E	0	M1
TTP	51	192	1	E	0	M1
TTP	51	288	0	C	0	M1
HLD	52	0	0	288
TTP	52	96	0	E	0	M1
TTP	52	192	0	C	0	M1
TTP	52	288	4	E	0	M1
TTP	53	0	4	B	0	M1
TTP	53	0	5	B	0	M1
TTP	53	96	1	B	0	M1
TTP	53	96	2	B	0	M1
TTP	53	192	0	C	0	M1
HLD	54	0	2	288
XST	54	0	4
SUR	54	0	4	96	96	1
TAP	54	288	3
XST	55	0	3
SUL	55	0	3	96	96	6
HLD	55	0	5	288
TAP	55	288	4
HLD	56	0	2	96
HLD	56	96	3	96
HLD	56	192	4	96
TAP	56	288	5
TAP	57	0	3
TAP	57	0	4
TAP	57	96	3
TAP	57	96	4
XTP	57	192	1
XTP	57	192	6
XHO	58	0	6	72
XHO	58	0	7	72
TAP	58	96	6
TAP	58	96	7
TAP	58	144	0
HLD	58	192	0	72
HLD	58	192	1	72
TAP	58	288	0
TAP	58	288	1
TAP	58	336	7
XHO	59	0	6	72
XHO	59	0	7	72
TAP	59	96	6
TAP	59	96	7
TAP	59	144	5
TAP	59	192	3
TAP	59	192	4
TAP	59	240	3
TAP	59	240	4
TAP	59	288	2
TAP	59	288	5
XHO	60	0	1	72
XHO	60	0	3	72
TAP	60	96	1
TAP	60	96	3
TAP	60	144	0
HLD	60	192	4	72
HLD	60	192	6	72
TAP	60	288	4
TAP	60	288	6
TAP	60	336	7
XHO	61	0	0	72
XHO	61	0	7	72
TAP	61	96	0
TAP	61	96	7
TAP	61	144	1
TAP	61	144	6
XTP	61	192	2
XTP	61	192	5
XTP	61	288	0
XTP	61	288	7
TAP	62	0	4
TAP	62	0	6
TAP	62	48	4
TAP	62	48	6
TAP	62	96	3
TAP	62	96	4
TAP	62	144	3
TAP	62	144	4
TAP	62	192	1
TAP	62	192	3
TAP	62	240	1
TAP	62	240	3
TAP	62	288	0
TAP	62	288	7
TAP	62	336	0
TAP	62	336	7
TAP	63	0	4
TAP	63	0	6
TAP	63	48	4
TAP	63	48	6
TAP	63	96	3
TAP	63	96	4
TAP	63	144	3
TAP	63	144	4
TAP	63	192	2
TAP	63	192	5
TAP	63	240	2
TAP	63	240	5
BRK	63	288	0
BRK	63	288	7
TAP	64	0	1
TAP	64	0	3
TAP	64	48	1
TAP	64	48	3
TAP	64	96	3
TAP	64	96	4
TAP	64	144	3
TAP	64	144	4
TAP	64	192	4
TAP	64	192	6
TAP	64	240	4
TAP	64	240	6
TAP	64	288	0
TAP	64	288	7
TAP	64	336	0
TAP	64	336	7
TAP	65	0	1
TAP	65	0	3
TAP	65	48	1
TAP	65	48	3
TAP	65	96	3
TAP	65	96	4
TAP	65	144	3
TAP	65	144	4
BRK	65	192	1
BRK	65	192	6
STR	66	0	6
SI_	66	0	6	96	48	4
STR	66	96	3
SI_	66	96	3	96	48	1
TTP	66	192	4	E	0	M1
TTP	66	288	0	C	0	M1
STR	67	0	1
SI_	67	0	1	96	48	3
STR	67	96	7
SI_	67	96	7	96	48	5
TTP	67	192	0	B	0	M1
TTP	67	288	0	C	0	M1
STR	68	0	6
SI_	68	0	6	96	48	0
STR	68	96	1
SI_	68	96	1	96	48	3
TTP	68	192	5	E	0	M1
TTP	68	288	0	C	0	M1
TAP	69	0	1
TAP	69	0	6
TAP	69	96	2
TAP	69	96	5
HLD	69	192	3	48
HLD	69	192	4	48
BRK	69	288	1
BRK	69	288	6
TAP	70	0	0
TAP	70	0	7
TAP	70	48	0
TAP	70	48	7
TAP	70	96	1
TAP	70	96	2
TAP	70	144	1
TAP	70	144	2
TAP	70	192	3
TAP	70	192	4
TAP	70	240	3
TAP	70	240	4
TAP	70	288	5
TAP	70	288	6
TAP	70	336	5
TAP	70	336	6
TAP	71	0	0
TAP	71	0	7
TAP	71	48	0
TAP	71	48	7
TAP	71	96	1
TAP	71	96	2
TAP	71	144	1
TAP	71	144	2
TAP	71	192	3
TAP	71	192	4
TAP	71	240	3
TAP	71	240	4
BRK	71	288	1
BRK	71	288	6
TAP	72	0	0
TAP	72	0	2
TAP	72	48	0
TAP	72	48	2
TAP	72	96	1
TAP	72	96	3
TAP	72	144	1
TAP	72	144	3
TAP	72	192	5
TAP	72	192	7
TAP	72	240	5
TAP	72	240	7
TAP	72	288	4
TAP	72	288	6
TAP	72	336	4
TAP	72	336	6
BRK	73	0	0
BRK	73	0	5
BRK	73	288	7
STR	74	0	1
SI_	74	0	1	96	48	5
TAP	74	48	1
STR	74	96	4
SI_	74	96	4	96	48	0
TAP	74	144	4
STR	74	192	1
SCR	74	192	1	96	48	4
TAP	74	240	1
TAP	74	288	7
TAP	74	336	6
TAP	75	0	5
TAP	75	48	4
TAP	75	48	6
TAP	75	96	2
TAP	75	144	1
TAP	75	144	3
TAP	75	192	0
TAP	75	240	0
XTP	75	288	2
XTP	75	288	6
TAP	76	0	3
TAP	76	0	4
TAP	76	48	6
TAP	76	96	3
TAP	76	96	4
TAP	76	144	1
TAP	76	192	4
TAP	76	192	5
TAP	76	240	7
TAP	76	288	2
TAP	76	288	3
TAP	76	336	0
STR	77	0	7
SI_	77	0	7	96	48	3
TAP	77	48	7
STR	77	96	2
SCL	77	96	2	96	96	5
TAP	77	144	2
BRK	77	192	5
STR	78	0	6
SI_	78	0	6	96	48	2
TAP	78	48	6
STR	78	96	3
SI_	78	96	3	96	48	7
TAP	78	144	3
STR	78	192	6
SCL	78	192	6	96	48	3
TAP	78	240	6
TAP	78	288	0
TAP	78	336	1
TAP	79	0	2
TAP	79	48	1
TAP	79	48	3
TAP	79	96	5
TAP	79	144	4
TAP	79	144	6
TAP	79	192	7
TAP	79	240	7
BRK	79	288	1
BRK	79	288	5
TAP	80	0	3
TAP	80	0	4
TAP	80	48	6
TAP	80	96	3
TAP	80	96	4
TAP	80	144	1
TAP	80	192	3
TAP	80	192	4
TAP	80	240	4
TAP	80	240	6
TAP	80	288	3
TAP	80	288	4
TAP	80	336	1
TAP	80	336	3
STR	81	0	0
SI_	81	0	0	96	48	4
STR	81	96	5
SUL	81	96	5	96	144	3
BRK	81	192	3
TTP	82	0	0	C	1	M1
TAP	83	288	3
TAP	83	288	4
TAP	84	0	2
TAP	84	48	1
TAP	84	48	3
TAP	84	96	6
TAP	84	144	5
TAP	84	144	7
TAP	84	192	1
TAP	84	240	0
TAP	84	240	2
TAP	84	288	5
TAP	84	336	4
TAP	84	336	6
STR	85	0	7
SI_	85	0	7	96	48	3
TAP	85	48	7
STR	85	96	2
SCL	85	96	2	96	96	5
TAP	85	144	2
BRK	85	192	5
TAP	86	0	3
TAP	86	0	4
TAP	86	48	1
TAP	86	48	3
TAP	86	96	0
TAP	86	96	7
TAP	86	144	4
TAP	86	144	6
TAP	86	192	3
TAP	86	192	4
TAP	86	240	1
TAP	86	240	3
TAP	86	288	0
TAP	86	288	7
TAP	86	336	4
TAP	86	336	6
TAP	87	0	2
TAP	87	0	3
TAP	87	48	0
TAP	87	48	1
TAP	87	96	6
TAP	87	96	7
TAP	87	144	4
TAP	87	144	5
TTP	87	192	0	C	1	M1
TTP	87	192	2	B	0	M1
TTP	87	192	6	B	0	M1
BRK	87	288	0
STR	88	0	7
SI_	88	0	7	96	48	3
TAP	88	48	7
STR	88	96	2
SCL	88	96	2	96	48	7
TAP	88	144	2
STR	88	192	5
SCL	88	192	5	96	48	2
TAP	88	240	5
TAP	88	288	0
TAP	88	336	0
BRK	89	0	7
TAP	89	96	3
TAP	89	96	4
TAP	89	144	2
TAP	89	144	5
BST	89	192	0
SI_	89	192	0	96	48	4
BST	89	192	7
SI_	89	192	7	96	48	3
TTP	90	0	0	C	1	M1
TTP	90	0	1	B	0	M1
TTP	90	0	6	B	0	M1

T_REC_TAP	430
T_REC_BRK	25
T_REC_XTP	28
T_REC_HLD	46
T_REC_XHO	10
T_REC_STR	28
T_REC_BST	2
T_REC_XST	2
T_REC_TTP	43
T_REC_THO	1
T_REC_SLD	32
T_REC_ALL	647
T_NUM_TAP	531
T_NUM_BRK	27
T_NUM_HLD	57
T_NUM_SLD	32
T_NUM_ALL	647
T_JUDGE_TAP	558
T_JUDGE_HLD	174
T_JUDGE_SLD	32
T_JUDGE_ALL	764
TTM_EACHPAIRS	155
TTM_SCR_TAP	265500
TTM_SCR_BRK	70200
TTM_SCR_HLD	57000
TTM_SCR_SLD	48000
TTM_SCR_ALL	440700
TTM_SCR_S	424900
TTM_SCR_SS	438000
TTM_RAT_ACV	10061

