VERSION	0.00.00	1.03.00
FES_MODE	0
BPM_DEF	155.000	155.000	155.000	155.000
MET_DEF	4	4
RESOLUTION	384
CLK_DEF	384
COMPATIBLE_CODE	MA2

BPM	0	0	155.000
MET	0	0	4	4

STR	2	0	2
SCR	2	0	2	96	480	5
STR	4	0	6
SI_	4	0	6	96	480	3
STR	6	0	1
SI_	6	0	1	96	480	4
THO	8	0	0	576	C	0	L1
STR	10	0	7
SCL	10	0	7	96	480	4
STR	12	0	3
SCL	12	0	3	96	480	0
STR	14	0	7
SSR	14	0	7	96	480	3
TAP	16	0	2
TAP	16	96	2
TAP	16	192	3
TAP	16	288	3
TAP	17	0	3
TAP	17	0	4
TAP	17	96	3
TAP	17	96	4
TAP	17	192	2
TAP	17	192	5
XHO	18	0	4	96
XHO	18	0	5	96
TAP	18	192	4
TAP	18	192	5
TAP	18	288	3
TAP	18	288	4
XHO	19	0	2	96
XHO	19	0	3	96
TAP	19	192	2
TAP	19	192	3
TAP	19	288	1
TAP	19	288	4
TAP	20	0	1
TAP	20	96	0
TAP	20	192	7
TAP	20	288	6
HLD	21	0	1	96
HLD	21	0	6	96
BRK	21	192	0
TAP	22	0	2
TAP	22	48	2
TAP	22	96	2
TAP	22	192	1
TAP	22	192	3
TAP	22	288	2
TAP	22	288	4
TAP	23	0	5
TAP	23	48	5
TAP	23	96	5
TAP	23	192	4
TAP	23	192	6
TAP	23	288	3
TAP	23	288	5
TAP	24	0	2
TAP	24	48	2
TAP	24	96	2
TAP	24	192	1
TAP	24	192	3
TAP	24	288	0
TAP	25	0	7
TAP	25	48	7
TAP	25	96	7
XTP	25	192	0
XTP	25	192	6
TAP	26	0	5
TAP	26	48	5
TAP	26	96	4
TAP	26	192	2
TAP	26	240	2
TAP	26	288	3
TAP	27	0	1
TAP	27	48	1
TAP	27	96	0
TAP	27	192	0
TAP	27	192	7
TAP	27	288	1
TAP	27	288	6
THO	28	0	0	384	C	0	L1
BRK	29	192	7
STR	30	0	5
SI_	30	0	5	96	144	2
STR	31	0	1
SI_	31	0	1	96	144	5
STR	32	0	6
SI_	32	0	6	96	144	2
TAP	33	0	1
TAP	33	96	0
BRK	33	192	0
BRK	33	192	7
HLD	34	0	1	192
HLD	34	192	2	192
HLD	35	0	3	192
TAP	35	192	4
HLD	36	0	4	192
HLD	36	192	5	192
HLD	37	0	6	192
TAP	37	192	7
BRK	38	0	0
TTP	42	0	2	E	0	L1
TTP	42	192	3	E	0	L1
TTP	43	0	4	E	0	L1
TTP	43	192	5	E	0	L1
TTP	44	0	6	E	0	L1
TTP	44	192	7	E	0	L1
THO	45	0	0	192	C	0	L1
TTP	46	0	6	E	0	L1
TTP	46	96	5	B	0	L1
TTP	46	192	4	B	0	L1
TTP	47	0	2	E	0	L1
TTP	47	96	2	B	0	L1
TTP	47	192	3	B	0	L1
TTP	48	0	4	B	0	L1
TTP	48	96	5	B	0	L1
TTP	48	192	6	E	0	L1
TTP	49	0	3	B	0	L1
TTP	49	96	2	B	0	L1
TTP	49	192	2	E	0	L1
TTP	50	0	7	B	0	L1
TTP	50	96	6	B	0	L1
TTP	50	192	6	E	0	L1
TTP	51	0	0	B	0	L1
TTP	51	96	1	B	0	L1
TTP	51	192	2	E	0	L1
TTP	52	0	3	B	0	L1
TTP	52	0	3	E	0	L1
TTP	52	192	4	B	0	L1
TTP	52	192	5	E	0	L1
TTP	53	0	4	E	0	L1
TTP	53	96	3	E	0	L1
TTP	53	96	5	E	0	L1
TTP	53	192	2	E	0	L1
TTP	53	192	6	E	0	L1
XHO	54	0	0	96
XHO	54	0	7	96
TAP	54	192	0
TAP	54	192	1
TAP	54	288	0
TAP	54	288	1
XHO	55	0	0	96
XHO	55	0	7	96
TAP	55	192	6
TAP	55	192	7
TAP	55	288	6
TAP	55	288	7
TAP	56	0	5
TAP	56	96	4
TAP	56	192	3
TAP	56	288	2
HLD	57	0	2	96
HLD	57	0	5	96
XTP	57	192	1
XTP	57	192	6
XTP	58	0	2
XTP	58	0	3
TAP	58	96	1
TAP	58	192	2
TAP	58	192	3
TAP	58	288	4
TAP	59	0	2
TAP	59	0	3
TAP	59	96	1
TAP	59	192	2
TAP	59	192	3
TAP	59	288	3
TAP	59	288	4
TAP	60	0	4
TAP	60	0	5
TAP	60	96	6
TAP	60	192	4
TAP	60	192	5
TAP	60	288	3
TAP	61	0	4
TAP	61	0	5
TAP	61	96	6
XTP	61	192	0
XTP	61	192	6
TAP	62	0	1
TAP	62	0	3
TAP	62	48	1
TAP	62	48	3
TAP	62	96	1
TAP	62	96	3
TAP	62	192	4
TAP	62	192	6
TAP	62	240	4
TAP	62	240	6
TAP	62	288	4
TAP	62	288	6
TAP	63	0	1
TAP	63	0	3
TAP	63	48	1
TAP	63	48	3
TAP	63	96	1
TAP	63	96	3
XTP	63	192	0
XTP	63	288	7
TAP	64	0	4
TAP	64	0	6
TAP	64	48	4
TAP	64	48	6
TAP	64	96	4
TAP	64	96	6
TAP	64	192	1
TAP	64	192	3
TAP	64	240	1
TAP	64	240	3
TAP	64	288	1
TAP	64	288	3
TAP	65	0	0
TAP	65	0	7
TAP	65	48	0
TAP	65	48	7
TAP	65	96	0
TAP	65	96	7
BRK	65	192	1
BRK	65	192	6
HLD	66	0	2	96
TAP	66	96	3
HLD	66	192	5	96
TAP	66	288	4
HLD	67	0	1	96
TAP	67	96	2
TAP	67	192	0
TAP	67	288	0
HLD	68	0	1	96
TAP	68	96	0
HLD	68	192	6	96
TAP	68	288	7
TAP	69	0	0
TAP	69	0	7
TAP	69	96	1
TAP	69	96	6
XTP	69	192	2
XTP	69	192	5
TAP	70	0	1
TAP	70	0	3
TAP	70	48	1
TAP	70	48	3
TAP	70	96	1
TAP	70	96	3
TAP	70	192	0
TAP	70	192	7
TAP	70	240	0
TAP	70	240	7
TAP	70	288	0
TAP	70	288	7
TAP	71	0	4
TAP	71	0	6
TAP	71	48	4
TAP	71	48	6
TAP	71	96	4
TAP	71	96	6
XTP	71	192	3
XTP	71	288	2
TAP	72	0	1
TAP	72	0	2
TAP	72	48	1
TAP	72	48	2
TAP	72	96	1
TAP	72	96	2
TAP	72	192	5
TAP	72	192	6
TAP	72	240	5
TAP	72	240	6
TAP	72	288	5
TAP	72	288	6
TTP	73	0	0	C	1	L1
XTP	73	288	0
XTP	73	288	7
TAP	74	0	1
TAP	74	48	1
TAP	74	96	0
TAP	74	96	1
TAP	74	192	2
TAP	74	240	2
TAP	74	288	2
TAP	74	288	3
TAP	75	0	4
TAP	75	0	5
TAP	75	96	6
TAP	75	96	7
TAP	75	192	0
TAP	75	192	1
XTP	75	288	2
XTP	75	288	7
TAP	76	0	6
TAP	76	48	6
TAP	76	96	6
TAP	76	96	7
TAP	76	192	5
TAP	76	240	5
TAP	76	288	4
TAP	76	288	5
TAP	77	0	2
TAP	77	0	3
TAP	77	96	0
TAP	77	96	1
BRK	77	192	2
BRK	77	192	7
TAP	78	0	1
TAP	78	48	1
TAP	78	96	0
TAP	78	96	1
TAP	78	192	6
TAP	78	240	6
TAP	78	288	6
TAP	78	288	7
TAP	79	0	0
TAP	79	0	1
TAP	79	96	2
TAP	79	96	3
TAP	79	192	4
TAP	79	192	5
XTP	79	288	3
XTP	79	288	6
TAP	80	0	5
TAP	80	48	5
TAP	80	96	3
TAP	80	144	3
TAP	80	192	4
TAP	80	288	2
TAP	80	288	5
HLD	81	0	0	96
HLD	81	0	7	96
BRK	81	192	1
BRK	81	192	6
TTP	82	0	0	C	1	L1
XTP	83	288	3
XTP	83	288	4
TAP	84	0	2
TAP	84	48	2
TAP	84	96	1
TAP	84	96	3
TAP	84	192	5
TAP	84	240	5
TAP	84	288	4
TAP	84	288	6
TAP	85	0	6
TAP	85	0	7
TAP	85	96	0
TAP	85	96	1
TAP	85	192	2
TAP	85	192	3
TAP	85	288	1
TAP	85	288	4
TAP	86	0	5
TAP	86	48	5
TAP	86	96	4
TAP	86	96	6
TAP	86	192	2
TAP	86	240	2
TAP	86	288	1
TAP	86	288	3
TAP	87	0	2
TAP	87	0	4
TAP	87	96	3
TAP	87	96	5
BRK	87	192	1
BRK	87	192	7
TAP	88	0	0
TAP	88	48	0
TAP	88	96	7
TAP	88	144	7
TAP	88	192	1
TAP	88	240	1
TAP	88	288	6
TAP	88	336	6
XTP	89	0	2
XTP	89	0	5
XTP	89	96	3
XTP	89	96	4
THO	89	192	0	192	C	1	L1

T_REC_TAP	254
T_REC_BRK	13
T_REC_XTP	26
T_REC_HLD	17
T_REC_XHO	8
T_REC_STR	9
T_REC_BST	0
T_REC_XST	0
T_REC_TTP	35
T_REC_THO	4
T_REC_SLD	9
T_REC_ALL	375
T_NUM_TAP	324
T_NUM_BRK	13
T_NUM_HLD	29
T_NUM_SLD	9
T_NUM_ALL	375
T_JUDGE_TAP	337
T_JUDGE_HLD	90
T_JUDGE_SLD	9
T_JUDGE_ALL	436
TTM_EACHPAIRS	108
TTM_SCR_TAP	162000
TTM_SCR_BRK	33800
TTM_SCR_HLD	29000
TTM_SCR_SLD	13500
TTM_SCR_ALL	238300
TTM_SCR_S	229900
TTM_SCR_SS	237000
TTM_RAT_ACV	10054

