VERSION	0.00.00	1.03.00
FES_MODE	0
BPM_DEF	155.000	155.000	155.000	155.000
MET_DEF	4	4
RESOLUTION	384
CLK_DEF	384
COMPATIBLE_CODE	MA2

BPM	0	0	155.000
MET	0	0	4	4

TAP	2	0	3
TAP	3	0	3
HLD	4	0	3	384
TAP	6	0	4
TAP	7	0	4
HLD	8	0	4	384
TAP	10	0	3
TAP	10	192	3
TAP	11	0	2
TAP	11	192	2
HLD	12	0	3	384
TAP	14	0	4
TAP	14	192	4
TAP	15	0	5
TAP	15	192	5
HLD	16	0	4	384
TAP	18	0	2
TAP	18	0	3
TAP	19	0	4
TAP	19	0	5
TAP	20	0	3
TAP	20	0	4
TAP	20	192	3
TAP	20	192	4
TAP	21	0	3
TAP	21	0	4
BRK	21	192	3
BRK	21	192	4
TAP	22	0	2
TAP	22	192	2
TAP	23	0	1
TAP	23	192	1
TAP	24	0	0
TAP	24	192	0
TAP	25	0	7
TAP	25	96	7
XTP	25	192	7
TAP	26	0	6
TAP	26	192	6
TAP	27	0	5
TAP	27	192	5
TAP	28	0	4
TAP	28	192	4
TAP	29	0	3
TAP	29	96	3
XTP	29	192	3
XTP	29	192	4
TAP	30	0	2
TAP	30	96	2
TAP	30	192	2
TAP	30	192	3
TAP	31	0	5
TAP	31	96	5
TAP	31	192	4
TAP	31	192	5
TAP	32	0	6
TAP	32	96	6
TAP	32	192	6
TAP	32	192	7
TAP	33	0	1
TAP	33	96	1
TAP	33	192	0
TAP	33	192	1
STR	34	0	1
SI_	34	0	1	96	288	5
STR	36	0	6
SI_	36	0	6	96	288	2
TTP	38	0	1	B	0	L1
TTP	39	0	2	B	0	L1
TTP	40	0	3	B	0	L1
TTP	41	0	4	B	0	L1
TTP	42	0	5	B	0	L1
TTP	43	0	6	B	0	L1
THO	44	0	0	384	C	0	L1
TAP	46	0	7
TAP	46	192	7
TAP	47	0	7
TAP	47	192	0
TAP	47	192	7
TAP	48	0	0
TAP	48	192	0
TAP	49	0	0
TAP	49	192	0
TAP	49	192	7
TAP	50	0	7
TAP	50	96	7
TAP	50	192	0
TAP	50	192	7
TAP	51	0	7
TAP	51	96	7
TAP	51	192	0
TAP	51	192	7
TAP	52	0	0
TAP	52	96	0
TAP	52	192	0
TAP	52	192	7
TAP	53	0	0
TAP	53	96	0
BRK	53	192	0
BRK	53	192	7
TAP	54	0	6
TAP	54	0	7
TAP	55	0	0
TAP	55	0	1
TAP	56	0	6
TAP	56	0	7
TAP	56	192	0
TAP	56	192	1
TAP	57	0	7
TAP	57	96	0
BRK	57	192	0
BRK	57	192	7
TAP	58	0	1
TAP	58	96	1
TAP	58	192	1
TAP	59	0	1
TAP	59	96	1
TAP	59	192	0
TAP	59	192	1
TAP	60	0	2
TAP	60	96	2
TAP	60	192	2
TAP	61	0	2
TAP	61	96	2
TAP	61	192	2
TAP	61	192	3
TAP	62	0	4
TAP	62	96	4
TAP	62	192	4
TAP	62	288	4
TAP	63	0	4
TAP	63	96	4
BRK	63	192	4
TAP	64	0	3
TAP	64	96	3
TAP	64	192	3
TAP	64	288	3
TAP	65	0	3
TAP	65	96	3
BRK	65	192	3
TAP	66	0	4
TAP	66	192	4
TAP	67	0	5
TAP	67	192	4
TAP	67	192	5
TAP	68	0	6
TAP	68	192	6
TAP	69	0	7
TAP	69	192	0
TAP	69	192	7
TAP	70	0	0
TAP	70	96	0
TAP	70	192	0
TAP	70	288	0
TAP	71	0	0
TAP	71	96	0
BRK	71	192	0
TAP	72	0	7
TAP	72	96	7
TAP	72	192	7
TAP	72	288	7
XTP	73	0	0
XTP	73	0	7
TAP	74	0	0
TAP	74	96	0
TAP	74	192	1
TAP	74	288	1
TAP	75	0	2
TAP	75	96	2
TAP	75	192	3
TAP	75	192	4
TAP	76	0	4
TAP	76	96	4
TAP	76	192	5
TAP	76	288	5
TAP	77	0	6
TAP	77	96	6
TAP	77	192	0
TAP	77	192	7
TAP	78	0	7
TAP	78	96	7
TAP	78	192	6
TAP	78	288	6
TAP	79	0	5
TAP	79	96	5
TAP	79	192	3
TAP	79	192	4
TAP	80	0	3
TAP	80	96	3
TAP	80	192	2
TAP	80	288	2
TAP	81	0	1
TAP	81	96	1
TAP	81	192	0
TAP	81	192	7
STR	82	0	7
SI_	82	0	7	96	288	4
TAP	84	0	3
TAP	84	96	3
TAP	84	192	3
TAP	85	0	4
TAP	85	96	4
TAP	85	192	3
TAP	85	192	4
TAP	86	0	5
TAP	86	96	5
TAP	86	192	5
TAP	87	0	6
TAP	87	96	6
TAP	87	192	6
TAP	87	192	7
TAP	88	0	0
TAP	88	96	0
TAP	88	192	7
TAP	88	288	7
TAP	89	0	0
TAP	89	96	0
TAP	89	192	0
TAP	89	192	7
XTP	90	0	1
XTP	90	0	6

T_REC_TAP	188
T_REC_BRK	9
T_REC_XTP	7
T_REC_HLD	4
T_REC_XHO	0
T_REC_STR	3
T_REC_BST	0
T_REC_XST	0
T_REC_TTP	6
T_REC_THO	1
T_REC_SLD	3
T_REC_ALL	221
T_NUM_TAP	204
T_NUM_BRK	9
T_NUM_HLD	5
T_NUM_SLD	3
T_NUM_ALL	221
T_JUDGE_TAP	213
T_JUDGE_HLD	40
T_JUDGE_SLD	3
T_JUDGE_ALL	256
TTM_EACHPAIRS	35
TTM_SCR_TAP	102000
TTM_SCR_BRK	23400
TTM_SCR_HLD	5000
TTM_SCR_SLD	4500
TTM_SCR_ALL	134900
TTM_SCR_S	130000
TTM_SCR_SS	134000
TTM_RAT_ACV	10067

