VERSION	0.00.00	1.03.00
FES_MODE	0
BPM_DEF	172.000	172.000	172.000	172.000
MET_DEF	4	4
RESOLUTION	384
CLK_DEF	384
COMPATIBLE_CODE	MA2

BPM	0	0	172.000
MET	0	0	4	4

HLD	3	0	1	336
TAP	3	0	3
TAP	3	96	3
TAP	3	144	3
TAP	3	240	4
HLD	3	336	5	384
TAP	4	96	4
TAP	4	144	4
TAP	4	240	3
STR	4	336	1
SXL	4	336	1	96	528	5
TAP	5	96	5
TAP	5	144	5
TAP	5	240	6
HLD	5	336	7	240
HLD	7	0	6	336
TAP	7	96	4
TAP	7	144	4
TAP	7	240	3
HLD	7	336	1	384
TAP	8	96	2
TAP	8	144	2
TAP	8	240	4
HLD	8	336	5	96
HLD	9	48	6	96
HLD	9	144	7	96
HLD	9	240	0	96
STR	9	336	1
SXL	9	336	1	96	240	4
SXR	9	336	1	96	240	6
XTP	11	0	3
XST	11	0	7
SCL	11	0	7	96	192	3
TAP	11	96	2
TAP	11	192	1
TAP	11	288	0
STR	12	0	7
SCR	12	0	7	96	192	3
TAP	12	96	4
TAP	12	192	5
TAP	12	288	6
XST	13	0	7
SCL	13	0	7	96	192	3
TTP	13	96	3	E	0	M1
TTP	13	192	2	E	0	M1
TTP	13	288	1	E	0	M1
STR	14	0	7
SCR	14	0	7	96	192	3
TTP	14	96	5	E	0	M1
TTP	14	192	6	E	0	M1
TTP	14	288	7	E	0	M1
XTP	15	0	4
XTP	15	0	6
TAP	15	48	6
TAP	15	96	6
TAP	15	96	7
TAP	15	144	6
TAP	15	192	5
TAP	15	192	6
TAP	15	240	6
TAP	15	288	0
TAP	15	288	6
TAP	15	336	6
XTP	16	0	2
XTP	16	0	5
TAP	16	48	2
TAP	16	96	0
TAP	16	96	2
TAP	16	144	2
TAP	16	192	2
TAP	16	192	3
TAP	16	240	2
TAP	16	288	2
TAP	16	288	7
HLD	16	336	2	48
XTP	17	0	3
TAP	17	24	2
TAP	17	48	4
TAP	17	72	1
TAP	17	96	5
TAP	17	120	0
TAP	17	144	6
TAP	17	168	7
TAP	17	192	6
TAP	17	204	5
TAP	17	216	4
TAP	17	228	3
TAP	17	240	2
TAP	17	252	1
TAP	17	264	0
TAP	17	276	7
TAP	17	288	6
TAP	17	300	5
TAP	17	312	4
TAP	17	324	3
TAP	17	336	2
TAP	17	348	1
TAP	17	360	0
TAP	17	372	7
XST	18	0	2
SXR	18	0	2	96	144	3
XST	18	0	6
SXR	18	0	6	96	144	7
TTP	18	288	0	C	0	M1
BRK	19	0	0
BRK	19	0	4
TAP	19	192	3
BRK	19	192	6
TAP	19	264	1
BRK	19	264	4
BRK	19	336	0
TAP	19	336	7
TAP	20	48	3
TAP	20	48	6
TAP	20	96	5
TAP	20	120	4
TAP	20	168	1
TAP	20	192	0
TAP	20	264	2
TAP	20	264	4
TAP	20	336	6
TAP	20	336	7
TAP	21	0	0
STR	21	0	5
SI_	21	0	5	96	48	0
STR	21	96	1
SI_	21	96	1	96	48	4
HLD	21	192	6	72
TAP	21	264	2
TAP	21	336	0
TAP	21	336	4
TTP	22	48	1	E	0	M1
TTP	22	96	2	E	0	M1
TTP	22	144	3	E	0	M1
TTP	22	192	7	E	0	M1
TTP	22	240	6	E	0	M1
TTP	22	288	5	E	0	M1
STR	23	0	1
SI_	23	0	1	96	48	4
STR	23	96	7
SI_	23	96	7	96	48	3
HLD	23	192	2	72
TAP	23	264	4
TAP	23	336	0
TAP	23	336	6
TAP	24	48	1
TAP	24	48	4
TAP	24	96	2
TAP	24	120	3
TAP	24	168	6
TAP	24	192	7
TAP	24	264	3
TAP	24	264	5
TAP	24	336	0
TAP	24	336	1
STR	25	0	2
SI_	25	0	2	96	48	7
TAP	25	0	7
STR	25	96	6
SI_	25	96	6	96	48	3
HLD	25	192	1	72
TAP	25	264	5
TAP	25	336	3
TAP	25	336	7
TAP	26	48	2
TAP	26	96	1
TAP	26	96	3
TAP	26	144	5
STR	26	192	6
SI_	26	192	6	96	48	3
STR	26	192	7
SI_	26	192	7	96	48	3
BRK	26	288	6
BRK	26	288	7
STR	27	0	1
SCR	27	0	1	96	48	4
STR	27	96	7
SI_	27	96	7	96	48	3
TAP	27	192	3
TAP	27	264	1
TAP	27	264	5
TAP	27	336	0
TAP	27	336	6
TAP	28	48	0
TAP	28	48	5
STR	28	96	6
SI_	28	96	6	96	48	3
TAP	28	120	7
TAP	28	168	7
TAP	28	192	6
TAP	28	264	2
TAP	28	336	0
TAP	28	336	7
TAP	29	0	1
STR	29	0	6
SCL	29	0	6	96	48	3
STR	29	96	0
SI_	29	96	0	96	48	4
TAP	29	192	4
TAP	29	264	2
TAP	29	264	6
TAP	29	336	1
TAP	29	336	7
TTP	30	48	3	E	0	M1
TTP	30	96	2	E	0	M1
TTP	30	144	1	E	0	M1
TTP	30	192	5	E	0	M1
TTP	30	240	6	E	0	M1
TTP	30	288	7	E	0	M1
XST	31	0	6
SCL	31	0	6	96	48	3
STR	31	96	0
SI_	31	96	0	96	48	4
TAP	31	192	4
TAP	31	264	2
TAP	31	264	6
TAP	31	336	1
TAP	31	336	7
TAP	32	48	2
TAP	32	48	7
STR	32	96	1
SI_	32	96	1	96	48	4
TAP	32	120	0
TAP	32	168	0
TAP	32	192	1
TAP	32	264	5
TAP	32	336	0
TAP	32	336	7
STR	33	0	1
SCR	33	0	1	96	48	4
TAP	33	0	6
STR	33	96	7
SI_	33	96	7	96	48	3
TAP	33	192	3
TAP	33	264	1
TAP	33	264	5
TAP	33	336	0
TAP	33	336	6
TAP	34	48	4
TAP	34	48	5
TAP	34	96	6
TAP	34	144	0
TAP	34	144	7
STR	34	192	1
SI_	34	192	1	96	48	3
STR	34	192	6
SI_	34	192	6	96	48	4
BRK	34	288	1
BRK	34	288	6
XHO	35	0	1	384
TAP	35	96	3
TAP	35	192	3
TAP	35	288	3
HLD	36	0	6	384
TAP	36	96	4
TAP	36	192	4
TAP	36	288	4
HLD	37	0	0	384
TAP	37	96	3
TAP	37	192	3
TAP	37	288	3
HLD	38	0	7	96
HLD	38	96	5	96
HLD	38	192	3	96
TAP	38	288	1
TAP	39	0	0
TAP	39	0	1
TAP	39	48	1
TAP	39	96	1
TAP	39	96	2
TAP	39	144	1
TAP	39	192	1
TAP	39	192	7
TAP	39	240	1
TAP	39	288	1
TAP	39	288	3
TAP	39	336	1
TAP	40	0	6
TAP	40	0	7
TAP	40	48	6
TAP	40	96	5
TAP	40	96	6
TAP	40	144	6
TAP	40	192	0
TAP	40	192	6
TAP	40	240	6
TAP	40	288	4
TAP	40	288	6
HLD	40	336	6	48
TAP	41	0	4
TAP	41	24	5
TAP	41	48	3
TAP	41	72	6
TAP	41	96	2
TAP	41	120	7
TAP	41	144	1
TAP	41	168	0
TAP	41	192	1
TAP	41	204	2
TAP	41	216	3
TAP	41	228	4
TAP	41	240	5
TAP	41	252	6
TAP	41	264	7
TAP	41	276	0
TAP	41	288	1
TAP	41	300	2
TAP	41	312	3
TAP	41	324	4
TAP	41	336	5
TAP	41	348	6
TAP	41	360	7
TAP	41	372	0
BRK	42	0	1
BST	42	0	4
SCR	42	0	4	96	120	3
TTP	42	288	0	C	0	M1
STR	43	0	1
SSR	43	0	1	96	72	5
BRK	43	0	4
TAP	43	168	4
TAP	43	216	3
TAP	43	216	4
TAP	43	264	5
TAP	43	288	4
TAP	43	336	3
TAP	43	336	6
XTP	44	0	3
STR	44	0	6
SSL	44	0	6	96	72	2
TAP	44	168	3
TAP	44	216	3
TAP	44	216	4
TAP	44	264	2
TAP	44	288	3
TAP	44	336	1
TAP	44	336	4
STR	45	0	1
SSR	45	0	1	96	72	5
BRK	45	0	4
TAP	45	168	4
TAP	45	216	3
TAP	45	216	4
TAP	45	264	5
TAP	45	288	4
TAP	45	336	3
TAP	45	336	6
TAP	46	0	1
TAP	46	0	5
XHO	46	48	2	48
XHO	46	48	4	48
XHO	46	120	2	48
XHO	46	120	4	48
XHO	46	192	3	48
XHO	46	192	5	48
XHO	46	264	3	48
XHO	46	264	5	48
XTP	46	336	3
XTP	46	336	5
STR	47	0	2
SSR	47	0	2	96	72	6
BRK	47	0	7
TAP	47	168	5
TAP	47	216	4
TAP	47	216	5
TAP	47	264	2
TAP	47	288	3
TAP	47	336	1
TAP	47	336	4
XTP	48	0	0
STR	48	0	5
SSL	48	0	5	96	72	1
TAP	48	168	2
TAP	48	216	2
TAP	48	216	3
TAP	48	264	5
TAP	48	288	4
TAP	48	336	3
TAP	48	336	6
STR	49	0	2
SSR	49	0	2	96	72	6
BRK	49	0	7
TAP	49	168	5
TAP	49	216	4
TAP	49	216	5
TAP	49	264	2
TAP	49	288	3
TAP	49	336	1
TAP	49	336	4
STR	50	0	2
SI_	50	0	2	96	48	6
TAP	50	48	2
STR	50	96	4
SI_	50	96	4	96	48	0
TAP	50	144	4
STR	50	192	1
SI_	50	192	1	96	48	5
TAP	50	240	1
HLD	50	288	7	88
BRK	51	0	0
BRK	51	0	6
XTP	51	8	1
XTP	51	8	5
XTP	51	16	2
XTP	51	16	4
XTP	51	24	3
TAP	51	96	6
TAP	51	120	6
TAP	51	168	5
XTP	51	216	3
XTP	51	216	4
TAP	51	264	2
TAP	51	288	3
TAP	51	336	1
TAP	51	336	4
STR	52	0	1
SUL	52	0	1	96	48	3
XTP	52	0	7
TAP	52	96	6
TAP	52	120	6
TAP	52	168	5
XTP	52	216	3
XTP	52	216	4
TAP	52	264	2
TAP	52	288	3
TAP	52	336	1
TAP	52	336	4
BRK	53	0	0
STR	53	0	6
SUR	53	0	6	96	48	4
TAP	53	96	1
TAP	53	120	1
TAP	53	168	2
XTP	53	216	3
XTP	53	216	4
TAP	53	264	5
TAP	53	288	4
TAP	53	336	3
TAP	53	336	6
TAP	54	0	2
TAP	54	0	4
XHO	54	48	1	48
XHO	54	48	3	48
XHO	54	120	1	48
XHO	54	120	3	48
XHO	54	192	4	48
XHO	54	192	6	48
XHO	54	264	4	48
XHO	54	264	6	48
XTP	54	336	2
XTP	54	336	5
BRK	55	0	0
BRK	55	0	4
TAP	55	48	2
TAP	55	48	3
TAP	55	96	6
HLD	55	120	4	48
TAP	55	168	5
HLD	55	192	3	48
TAP	55	240	4
HLD	55	264	2	48
TAP	55	312	3
TAP	55	336	1
TAP	56	0	7
TAP	56	48	4
TAP	56	48	5
TAP	56	96	1
HLD	56	120	3	48
TAP	56	168	2
HLD	56	192	4	48
TAP	56	240	3
HLD	56	264	5	48
TAP	56	312	4
TAP	56	336	6
BRK	57	0	0
TAP	57	48	2
TAP	57	48	4
TAP	57	96	1
TAP	57	120	7
TAP	57	144	1
TAP	57	168	7
TAP	57	192	0
TAP	57	216	6
TAP	57	240	0
TAP	57	264	6
TAP	57	288	1
TAP	57	312	7
TAP	57	336	0
TAP	57	360	6
TTP	58	0	0	C	1	M1
HLD	59	0	2	384
TAP	59	0	4
TAP	59	96	3
TAP	59	192	3
TAP	59	288	3
HLD	60	0	5	384
TAP	60	96	4
TAP	60	192	4
TAP	60	288	4
HLD	61	0	2	288
TAP	61	96	3
TAP	61	192	4
TAP	61	288	5
STR	62	0	0
SCR	62	0	0	96	96	3
STR	62	0	6
SCL	62	0	6	96	96	3
TAP	63	0	4
HLD	63	0	6	384
TAP	63	96	4
TAP	63	192	4
TAP	63	288	4
HLD	64	0	1	384
TAP	64	96	3
TAP	64	192	3
TAP	64	288	3
HLD	65	0	6	288
TAP	65	96	4
TAP	65	192	3
TAP	65	288	2
TAP	66	0	1
STR	66	0	7
SSL	66	0	7	96	192	3
SSR	66	0	7	96	192	3
STR	67	0	0
SCR	67	0	0	96	192	4
TAP	67	0	4
TAP	67	96	5
TAP	67	192	6
TAP	67	288	7
STR	68	0	0
SCL	68	0	0	96	192	4
TAP	68	96	3
TAP	68	192	2
TAP	68	288	1
STR	69	0	0
SCR	69	0	0	96	192	4
TTP	69	96	5	E	0	M1
TTP	69	192	6	E	0	M1
TTP	69	288	7	E	0	M1
STR	70	0	0
SCL	70	0	0	96	192	4
TTP	70	96	3	E	0	M1
TTP	70	192	2	E	0	M1
TTP	70	288	1	E	0	M1
XTP	71	0	1
XTP	71	0	3
TAP	71	48	1
TAP	71	96	0
TAP	71	96	1
TAP	71	144	1
TAP	71	192	1
TAP	71	192	4
TAP	71	240	1
TAP	71	288	1
TAP	71	288	7
TAP	71	336	1
XTP	72	0	2
XTP	72	0	5
TAP	72	48	5
TAP	72	96	5
TAP	72	96	7
TAP	72	144	5
TAP	72	192	4
TAP	72	192	5
TAP	72	240	5
TAP	72	288	0
TAP	72	288	5
TAP	72	336	5
XTP	73	0	3
TAP	73	24	4
TAP	73	48	2
TAP	73	72	5
TAP	73	96	1
TAP	73	120	6
TAP	73	144	0
TAP	73	168	7
TAP	73	192	0
TAP	73	204	1
TAP	73	216	2
TAP	73	228	3
TAP	73	240	4
TAP	73	252	5
TAP	73	264	6
TAP	73	276	7
TAP	73	288	0
TAP	73	300	1
TAP	73	312	2
TAP	73	324	3
TAP	73	336	4
TAP	73	348	5
TAP	73	360	6
TAP	73	372	7
BST	74	0	0
SXL	74	0	0	96	144	7
BST	74	0	4
SXL	74	0	4	96	144	3
XTP	74	288	3
XTP	74	288	7
TAP	74	312	0
TAP	74	312	4
TAP	74	336	1
TAP	74	336	5
TAP	74	360	2
TAP	74	360	6
HLD	75	0	3	468
HLD	75	0	7	468
BRK	76	96	2
BRK	76	96	6
XTP	76	104	1
XTP	76	104	5
XTP	76	112	0
XTP	76	112	4
XTP	76	120	3
XTP	76	120	7
TAP	76	192	1
TAP	76	192	5
TAP	76	240	6
TAP	76	264	7
TAP	76	312	2
TAP	76	336	3
STR	77	0	1
SCR	77	0	1	96	48	4
STR	77	0	5
SCR	77	0	5	96	48	0
TAP	77	96	1
TAP	77	96	5
HLD	77	192	2	48
HLD	77	192	6	48
HLD	77	264	0	48
HLD	77	264	4	48
STR	77	336	2
SCL	77	336	2	96	48	7
TAP	77	336	6
XTP	78	48	2
XTP	78	48	7
TAP	78	60	6
TAP	78	72	5
TAP	78	84	4
TAP	78	96	3
XTP	78	144	1
XTP	78	144	5
TAP	78	192	3
TAP	78	192	7
TAP	78	240	6
TAP	78	288	1
TAP	78	288	5
TAP	78	336	2
TAP	79	0	3
STR	79	0	7
SI_	79	0	7	96	48	2
STR	79	96	1
SI_	79	96	1	96	48	4
TAP	79	96	7
TAP	79	192	1
STR	79	192	6
SLL	79	192	6	96	72	0
TAP	79	264	3
HLD	79	336	1	96
TAP	80	48	6
TAP	80	96	6
TAP	80	120	4
TAP	80	168	4
TAP	80	192	3
TAP	80	240	3
TAP	80	264	1
TAP	80	312	1
TAP	80	336	7
STR	81	0	2
SV_	81	0	2	96	48	7
STR	81	0	6
SI_	81	0	6	96	48	3
TAP	81	96	2
TAP	81	96	6
HLD	81	192	1	48
HLD	81	192	5	48
HLD	81	264	3	48
HLD	81	264	7	48
TAP	81	336	1
STR	81	336	5
SCR	81	336	5	96	48	0
XTP	82	48	0
XTP	82	48	5
TAP	82	60	1
TAP	82	72	2
TAP	82	84	3
TAP	82	96	4
XTP	82	144	2
XTP	82	144	6
TAP	82	192	0
TAP	82	192	4
TAP	82	240	1
TAP	82	288	2
TAP	82	288	6
TAP	82	336	5
STR	83	0	0
SI_	83	0	0	96	48	5
TAP	83	0	4
TAP	83	96	0
STR	83	96	6
SI_	83	96	6	96	48	3
STR	83	192	1
SLR	83	192	1	96	72	7
TAP	83	192	6
TAP	83	264	5
HLD	83	336	6	96
TAP	84	48	1
TAP	84	96	1
TAP	84	120	3
TAP	84	168	3
TAP	84	192	4
TAP	84	240	4
TAP	84	264	6
TAP	84	312	6
TAP	84	336	0
STR	85	0	1
SI_	85	0	1	96	48	4
STR	85	0	5
SI_	85	0	5	96	48	0
TAP	85	96	1
TAP	85	96	5
HLD	85	192	2	48
HLD	85	192	6	48
HLD	85	264	0	48
HLD	85	264	4	48
TAP	85	336	2
STR	85	336	6
SCL	85	336	6	96	48	3
XTP	86	48	3
XTP	86	48	6
TAP	86	60	2
TAP	86	72	1
TAP	86	84	0
TAP	86	96	7
XTP	86	144	1
XTP	86	144	5
TAP	86	192	3
TAP	86	192	7
TAP	86	240	6
TAP	86	288	1
TAP	86	288	5
TAP	86	336	2
TAP	87	0	3
STR	87	0	7
SI_	87	0	7	96	48	2
STR	87	96	1
SI_	87	96	1	96	48	4
TAP	87	96	7
TAP	87	192	1
STR	87	192	6
SLL	87	192	6	96	72	0
TAP	87	264	2
HLD	87	336	1	96
TAP	88	48	6
TAP	88	96	6
TAP	88	120	4
TAP	88	168	4
TAP	88	192	3
TAP	88	240	3
TAP	88	264	1
TAP	88	312	1
TAP	88	336	7
STR	89	0	2
SI_	89	0	2	96	48	7
STR	89	0	6
SI_	89	0	6	96	48	3
TAP	89	96	2
TAP	89	96	6
HLD	89	192	1	48
HLD	89	192	5	48
HLD	89	264	3	48
HLD	89	264	7	48
STR	89	336	1
SCR	89	336	1	96	48	4
TAP	89	336	5
XTP	90	48	1
XTP	90	48	4
TAP	90	60	5
TAP	90	72	6
TAP	90	84	7
TAP	90	96	0
XTP	90	144	2
XTP	90	144	6
STR	90	192	1
SV_	90	192	1	96	48	4
STR	90	192	7
SV_	90	192	7	96	48	4
TAP	90	240	3
TAP	90	240	5
BRK	90	288	1
BRK	90	288	7
HLD	91	0	2	192
TAP	91	0	5
HLD	91	192	3	72
HLD	91	264	4	72
HLD	91	336	5	168
TAP	92	48	7
HLD	92	120	7	72
HLD	92	192	6	72
HLD	92	264	5	120
TAP	92	336	4
HLD	93	0	4	96
HLD	93	96	1	96
HLD	93	192	2	72
HLD	93	264	3	72
HLD	93	336	4	96
TTP	94	48	7	E	0	M1
TTP	94	96	7	B	0	M1
TTP	94	144	0	B	0	M1
TTP	94	192	1	E	0	M1
TTP	94	240	1	B	0	M1
TTP	94	288	2	B	0	M1
HLD	95	0	5	192
HLD	95	192	4	72
HLD	95	264	3	72
HLD	95	336	2	168
TAP	96	48	0
HLD	96	120	0	72
HLD	96	192	1	72
HLD	96	264	2	120
TAP	96	336	3
HLD	97	0	3	96
HLD	97	96	6	96
HLD	97	192	5	72
HLD	97	264	4	72
HLD	97	336	3	96
TAP	98	48	0
TAP	98	96	7
TAP	98	144	6
BST	98	192	4
SXR	98	192	4	96	96	4
BST	98	192	5
SXL	98	192	5	96	96	5

T_REC_TAP	479
T_REC_BRK	24
T_REC_XTP	53
T_REC_HLD	77
T_REC_XHO	17
T_REC_STR	64
T_REC_BST	5
T_REC_XST	5
T_REC_TTP	33
T_REC_THO	0
T_REC_SLD	76
T_REC_ALL	833
T_NUM_TAP	634
T_NUM_BRK	29
T_NUM_HLD	94
T_NUM_SLD	76
T_NUM_ALL	833
T_JUDGE_TAP	663
T_JUDGE_HLD	249
T_JUDGE_SLD	76
T_JUDGE_ALL	988
TTM_EACHPAIRS	173
TTM_SCR_TAP	317000
TTM_SCR_BRK	75400
TTM_SCR_HLD	94000
TTM_SCR_SLD	114000
TTM_SCR_ALL	600400
TTM_SCR_S	579600
TTM_SCR_SS	597500
TTM_RAT_ACV	10048

