VERSION	0.00.00	1.03.00
FES_MODE	0
BPM_DEF	172.000	172.000	172.000	172.000
MET_DEF	4	4
RESOLUTION	384
CLK_DEF	384
COMPATIBLE_CODE	MA2

BPM	0	0	172.000
MET	0	0	4	4

STR	3	0	0
SCR	3	0	0	96	480	6
STR	5	0	7
SCL	5	0	7	96	480	1
STR	7	0	0
SCR	7	0	0	96	192	4
STR	8	0	7
SCL	8	0	7	96	192	3
STR	9	0	0
SCR	9	0	0	96	192	4
HLD	10	0	7	384
TAP	11	0	0
TAP	11	96	0
TAP	11	192	1
TAP	11	288	1
TAP	12	0	2
TAP	12	96	2
TAP	12	192	3
TAP	12	288	3
TAP	13	0	4
TAP	13	96	4
TAP	13	192	5
TAP	13	288	5
TAP	14	0	6
TAP	14	96	6
TAP	14	192	7
HLD	14	288	7	96
TTP	15	0	0	E	0	M1
TTP	15	96	7	E	0	M1
TTP	15	192	6	E	0	M1
TTP	15	288	5	E	0	M1
TTP	16	0	4	E	0	M1
TTP	16	96	3	E	0	M1
TTP	16	192	2	E	0	M1
TTP	16	288	1	E	0	M1
TAP	17	0	0
TAP	17	48	0
TAP	17	96	7
TAP	17	144	7
TAP	17	192	2
TAP	17	240	2
TAP	17	288	5
TAP	17	336	5
STR	18	0	0
SI_	18	0	0	96	96	4
TAP	18	192	7
BRK	18	288	1
BRK	18	288	6
TTP	19	0	0	C	1	M1
XTP	19	192	0
XTP	19	192	7
XTP	19	264	0
XTP	19	264	7
XHO	19	336	0	96
XTP	19	336	7
TAP	20	48	4
TAP	20	96	4
TAP	20	192	2
STR	20	192	6
SCL	20	192	6	96	96	3
TAP	21	0	0
TAP	21	96	1
TAP	21	96	4
HLD	21	192	5	72
HLD	21	264	6	72
TAP	21	336	7
TAP	22	48	3
TAP	22	96	3
TAP	22	192	1
TAP	22	192	5
TAP	22	288	2
TAP	22	288	6
TAP	23	0	0
TAP	23	0	7
TAP	23	96	2
TAP	23	96	5
HLD	23	192	1	72
HLD	23	264	2	72
TAP	23	336	3
TAP	24	48	4
TAP	24	96	4
STR	24	192	1
SCR	24	192	1	96	96	4
TAP	24	192	5
TAP	25	0	7
TAP	25	96	3
TAP	25	96	6
HLD	25	192	2	72
HLD	25	264	1	72
TAP	25	336	0
TAP	26	48	4
TAP	26	96	4
TAP	26	192	3
TAP	26	192	5
TAP	26	288	2
TAP	26	288	6
TAP	27	0	0
TAP	27	0	7
TAP	27	96	2
TAP	27	96	5
HLD	27	192	1	72
HLD	27	264	2	72
TAP	27	336	3
TAP	28	48	4
TAP	28	96	4
STR	28	192	1
SCR	28	192	1	96	96	4
TAP	28	192	5
TAP	29	0	7
TAP	29	96	3
TAP	29	96	6
HLD	29	192	2	72
HLD	29	264	1	72
TAP	29	336	0
TAP	30	48	4
TAP	30	96	4
TAP	30	192	2
TAP	30	192	6
TAP	30	288	1
TAP	30	288	5
TAP	31	0	0
TAP	31	0	7
TAP	31	96	2
TAP	31	96	5
HLD	31	192	6	72
HLD	31	264	5	72
TAP	31	336	4
TAP	32	48	3
TAP	32	96	3
TAP	32	192	2
STR	32	192	6
SCL	32	192	6	96	96	3
TAP	33	0	0
TAP	33	96	1
TAP	33	96	4
HLD	33	192	5	72
HLD	33	264	6	72
TAP	33	336	7
TAP	34	48	3
STR	34	96	3
SI_	34	96	3	96	96	0
TTP	35	0	7	E	0	M1
TTP	35	96	6	B	0	M1
TTP	35	192	2	B	0	M1
TTP	35	288	3	E	0	M1
TTP	36	0	5	E	0	M1
TTP	36	96	5	B	0	M1
TTP	36	192	1	B	0	M1
TTP	36	288	1	E	0	M1
TTP	37	0	7	E	0	M1
TTP	37	96	7	B	0	M1
TTP	37	192	3	B	0	M1
TTP	37	288	3	E	0	M1
TTP	38	0	1	E	0	M1
TTP	38	96	0	B	0	M1
TTP	38	192	4	B	0	M1
TTP	38	288	5	E	0	M1
TTP	39	0	0	B	0	M1
TTP	39	0	1	E	0	M1
TTP	39	96	1	B	0	M1
TTP	39	192	5	B	0	M1
TTP	39	192	6	E	0	M1
TTP	39	288	5	E	0	M1
TTP	40	0	3	B	0	M1
TTP	40	0	3	E	0	M1
TTP	40	96	2	B	0	M1
TTP	40	192	6	B	0	M1
TTP	40	192	6	E	0	M1
TTP	40	288	7	E	0	M1
TAP	41	0	0
TAP	41	48	0
TAP	41	96	7
TAP	41	144	7
TAP	41	192	2
TAP	41	240	2
TAP	41	288	5
TTP	42	0	0	C	1	M1
XTP	42	192	0
XTP	42	192	7
XTP	42	240	0
XTP	42	240	7
BRK	42	288	1
BRK	42	288	6
HLD	43	0	3	96
STR	43	0	5
SI_	43	0	5	96	96	2
TAP	43	192	0
TAP	43	240	0
TAP	43	288	0
STR	44	0	1
SCL	44	0	1	96	96	6
HLD	44	0	3	96
TAP	44	192	5
TAP	44	240	5
TAP	44	288	5
STR	45	0	4
SV_	45	0	4	96	96	7
HLD	45	0	6	96
TAP	45	192	5
TAP	45	240	5
TAP	45	288	5
STR	46	0	0
SV_	46	0	0	96	96	2
STR	46	0	4
SV_	46	0	4	96	96	6
XTP	46	288	1
XTP	46	288	5
STR	47	0	2
SI_	47	0	2	96	96	5
HLD	47	0	4	96
TAP	47	192	7
TAP	47	240	7
TAP	47	288	7
HLD	48	0	4	96
STR	48	0	6
SCR	48	0	6	96	96	1
TAP	48	192	2
TAP	48	240	2
TAP	48	288	2
HLD	49	0	1	96
STR	49	0	3
SV_	49	0	3	96	96	0
TAP	49	192	2
TAP	49	240	2
TAP	49	288	2
STR	50	0	3
SV_	50	0	3	96	96	1
STR	50	0	7
SV_	50	0	7	96	96	5
XTP	50	288	2
XTP	50	288	6
TTP	51	0	0	C	1	M1
TTP	51	96	1	B	0	M1
TTP	51	96	6	B	0	M1
TTP	51	192	0	B	0	M1
TTP	51	192	7	B	0	M1
TTP	51	288	3	E	0	M1
TTP	51	288	5	E	0	M1
STR	52	0	3
SI_	52	0	3	96	96	7
HLD	52	0	4	96
TAP	52	192	6
TAP	52	240	6
TAP	52	288	5
TAP	52	288	6
HLD	53	0	4	96
STR	53	0	5
SI_	53	0	5	96	96	1
TAP	53	192	2
TAP	53	240	2
TAP	53	288	2
TAP	53	288	3
STR	54	0	1
SV_	54	0	1	96	96	3
STR	54	0	5
SV_	54	0	5	96	96	7
XTP	54	288	2
XTP	54	288	6
STR	55	0	1
SI_	55	0	1	96	96	5
HLD	55	0	7	96
TAP	55	192	6
TAP	55	240	6
TAP	55	288	6
TAP	55	288	7
HLD	56	0	3	96
STR	56	0	4
SI_	56	0	4	96	96	0
TAP	56	192	1
TAP	56	240	1
TAP	56	288	1
TAP	56	288	2
STR	57	0	2
SI_	57	0	2	96	96	6
HLD	57	0	3	96
TAP	57	192	5
TAP	57	240	5
TAP	57	288	4
STR	57	288	5
SUL	57	288	5	96	288	3
TTP	58	0	0	C	1	M1
HLD	59	0	2	288
TAP	59	96	3
TAP	59	192	3
HLD	59	288	3	96
HLD	60	0	0	288
TAP	60	96	2
TAP	60	192	2
HLD	60	288	2	96
HLD	61	0	1	288
TAP	61	96	3
TAP	61	192	3
HLD	61	288	3	96
TAP	62	0	0
TAP	62	96	2
TAP	62	192	3
TAP	62	240	3
TAP	62	288	4
HLD	63	0	5	288
TAP	63	96	4
TAP	63	192	4
HLD	63	288	4	96
HLD	64	0	7	288
TAP	64	96	5
TAP	64	192	5
HLD	64	288	5	96
HLD	65	0	6	288
TAP	65	96	4
TAP	65	192	4
HLD	65	288	4	96
TAP	66	0	7
TAP	66	96	5
TAP	66	192	4
TAP	66	240	4
TAP	66	288	3
HLD	67	0	2	288
TAP	67	96	3
TTP	67	192	4	E	0	M1
HLD	67	288	3	96
HLD	68	0	0	288
TAP	68	96	2
TTP	68	192	3	E	0	M1
HLD	68	288	2	96
HLD	69	0	1	288
TAP	69	96	3
TTP	69	192	4	E	0	M1
HLD	69	288	3	96
TAP	70	0	0
TAP	70	96	2
TAP	70	192	3
TAP	70	240	3
TAP	70	288	4
HLD	71	0	5	288
TAP	71	96	4
TTP	71	192	4	E	0	M1
HLD	71	288	4	96
HLD	72	0	7	288
TAP	72	96	5
TTP	72	192	5	E	0	M1
HLD	72	288	5	96
HLD	73	0	6	288
TAP	73	96	4
TTP	73	192	4	E	0	M1
STR	73	288	4
SI_	73	288	4	96	96	0
TAP	74	192	0
TAP	74	192	7
XTP	74	288	2
XTP	74	288	5
XTP	75	0	1
XTP	75	0	6
TTP	75	192	5	B	0	M1
TTP	75	192	5	E	0	M1
TTP	75	192	6	E	0	M1
TTP	75	264	2	B	0	M1
TTP	75	264	2	E	0	M1
TTP	75	264	3	E	0	M1
TTP	75	336	0	C	1	M1
XTP	76	48	0
XTP	76	48	7
BRK	76	96	0
BRK	76	96	7
STR	76	192	1
SCR	76	192	1	96	48	3
STR	76	192	6
SCL	76	192	6	96	48	4
TTP	77	0	1	E	0	M1
TTP	77	0	6	E	0	M1
TTP	77	96	3	E	0	M1
TTP	77	96	4	E	0	M1
HLD	77	192	0	72
HLD	77	264	6	72
STR	77	336	4
SCL	77	336	4	96	96	0
TAP	78	48	5
XTP	78	144	7
XTP	78	192	7
TAP	78	288	2
TAP	78	288	6
TTP	79	0	2	E	0	M1
TTP	79	0	7	E	0	M1
TTP	79	96	4	E	0	M1
TTP	79	96	5	E	0	M1
HLD	79	192	7	72
HLD	79	264	1	72
TAP	79	336	3
TAP	80	48	4
HLD	80	48	5	72
HLD	80	120	7	72
HLD	80	192	0	72
HLD	80	264	2	72
TAP	80	336	4
TAP	81	0	1
TAP	81	0	5
TTP	81	96	4	E	0	M1
TTP	81	96	5	E	0	M1
HLD	81	192	7	72
HLD	81	264	1	72
STR	81	336	3
SCR	81	336	3	96	96	7
TAP	82	48	2
XTP	82	144	0
XTP	82	192	0
TAP	82	288	1
TAP	82	288	5
TTP	83	0	1	E	0	M1
TTP	83	0	5	E	0	M1
TTP	83	96	3	E	0	M1
TTP	83	96	4	E	0	M1
HLD	83	192	0	72
HLD	83	264	6	72
TAP	83	336	4
HLD	84	48	2	72
TAP	84	48	3
HLD	84	120	0	72
HLD	84	192	7	72
HLD	84	264	5	72
TAP	84	336	3
TAP	85	0	2
TAP	85	0	6
TTP	85	96	3	E	0	M1
TTP	85	96	4	E	0	M1
HLD	85	192	4	72
HLD	85	264	6	72
STR	85	336	0
SCL	85	336	0	96	96	4
TAP	86	48	1
XTP	86	144	2
XTP	86	192	2
TAP	86	288	1
TAP	86	288	5
TTP	87	0	3	E	0	M1
TTP	87	0	7	E	0	M1
TTP	87	96	4	E	0	M1
TTP	87	96	5	E	0	M1
HLD	87	192	0	72
HLD	87	264	2	72
TAP	87	336	3
TAP	88	48	4
HLD	88	48	5	72
HLD	88	120	7	72
HLD	88	192	0	72
HLD	88	264	2	72
TAP	88	336	4
TAP	89	0	1
TAP	89	0	5
TTP	89	96	4	E	0	M1
TTP	89	96	5	E	0	M1
HLD	89	192	3	72
HLD	89	264	1	72
STR	89	336	7
SCR	89	336	7	96	96	3
TAP	90	48	6
XTP	90	144	5
XTP	90	192	5
STR	90	288	2
SCR	90	288	2	96	480	1
TAP	90	288	6
TTP	91	0	0	C	1	M1
STR	92	288	5
SCL	92	288	5	96	576	6
STR	94	288	0
SLR	94	288	0	96	192	4
STR	95	288	7
SLL	95	288	7	96	192	3
STR	96	288	1
SLR	96	288	1	96	192	5
TAP	97	288	7
TAP	98	0	1
TAP	98	48	1
TAP	98	96	5
TAP	98	144	5
STR	98	192	3
SI_	98	192	3	96	96	7

T_REC_TAP	196
T_REC_BRK	6
T_REC_XTP	29
T_REC_HLD	76
T_REC_XHO	1
T_REC_STR	42
T_REC_BST	0
T_REC_XST	0
T_REC_TTP	82
T_REC_THO	0
T_REC_SLD	42
T_REC_ALL	474
T_NUM_TAP	349
T_NUM_BRK	6
T_NUM_HLD	77
T_NUM_SLD	42
T_NUM_ALL	474
T_JUDGE_TAP	355
T_JUDGE_HLD	208
T_JUDGE_SLD	42
T_JUDGE_ALL	605
TTM_EACHPAIRS	65
TTM_SCR_TAP	174500
TTM_SCR_BRK	15600
TTM_SCR_HLD	77000
TTM_SCR_SLD	63000
TTM_SCR_ALL	330100
TTM_SCR_S	319650
TTM_SCR_SS	329500
TTM_RAT_ACV	10018

