VERSION	0.00.00	1.03.00
FES_MODE	0
BPM_DEF	172.000	172.000	172.000	172.000
MET_DEF	4	4
RESOLUTION	384
CLK_DEF	384
COMPATIBLE_CODE	MA2

BPM	0	0	172.000
MET	0	0	4	4

XHO	3	0	5	384
HLD	4	0	4	384
HLD	5	0	3	384
TAP	6	0	2
HLD	7	0	1	384
HLD	8	0	2	384
HLD	9	0	3	384
TAP	10	0	4
HLD	11	0	5	192
TAP	11	192	4
HLD	12	0	2	192
TAP	12	192	3
HLD	13	0	4	192
TAP	13	192	3
TAP	14	0	3
TAP	14	0	4
TAP	14	192	2
TAP	14	192	5
TAP	15	0	1
TAP	15	96	1
TAP	15	192	0
TAP	15	192	1
TAP	16	0	6
TAP	16	96	6
TAP	16	192	6
TAP	16	192	7
HLD	17	0	0	192
HLD	17	192	7	192
TAP	18	0	0
TAP	18	192	1
TAP	18	192	6
XHO	19	0	2	96
XHO	19	0	5	96
TAP	19	192	2
TAP	19	192	5
TAP	19	288	2
TAP	19	288	5
TAP	20	0	3
TAP	20	0	4
TAP	20	96	3
TAP	20	96	4
TAP	20	192	2
TAP	20	192	5
TAP	21	0	5
TAP	21	96	5
TAP	21	192	4
TAP	21	192	6
TAP	22	0	2
TAP	22	96	2
TAP	22	192	1
TAP	22	192	3
TAP	23	0	2
TAP	23	96	2
TAP	23	192	3
TAP	23	288	4
TAP	24	0	5
TAP	24	96	5
TAP	24	192	4
TAP	24	192	6
TAP	25	0	6
TAP	25	96	6
TAP	25	96	7
TAP	25	192	1
TAP	25	288	0
TAP	25	288	1
TAP	26	0	7
TAP	26	96	6
XTP	26	192	0
XTP	26	192	5
TAP	27	0	1
TAP	27	96	1
TAP	27	192	0
TAP	27	288	7
TAP	28	0	6
TAP	28	96	6
TAP	28	192	0
TAP	28	192	5
TAP	29	0	6
TAP	29	96	6
TAP	29	192	7
TAP	29	288	0
TAP	30	0	1
TAP	30	96	1
TAP	30	192	2
TAP	30	192	7
TAP	31	0	0
TAP	31	0	1
TAP	31	96	0
TAP	31	96	1
TAP	31	192	2
TAP	31	288	3
TAP	32	0	4
TAP	32	96	5
TAP	32	192	6
TAP	32	192	7
TAP	32	288	6
TAP	32	288	7
TAP	33	0	5
TAP	33	96	4
TAP	33	192	3
TAP	33	288	3
TAP	33	288	4
HLD	34	0	2	96
HLD	34	0	5	96
XTP	34	192	2
XTP	34	192	5
TTP	35	0	3	E	0	L1
TTP	35	192	2	E	0	L1
TTP	36	0	1	E	0	L1
TTP	36	192	0	E	0	L1
TTP	37	0	7	E	0	L1
TTP	37	192	6	E	0	L1
TTP	38	0	5	E	0	L1
TTP	38	192	3	B	0	L1
TTP	38	192	4	B	0	L1
TTP	39	0	2	E	0	L1
TTP	39	96	2	B	0	L1
TTP	39	192	3	B	0	L1
TTP	40	0	6	E	0	L1
TTP	40	96	5	B	0	L1
TTP	40	192	4	B	0	L1
TTP	41	0	2	B	0	L1
TTP	41	0	3	B	0	L1
TTP	41	192	4	B	0	L1
TTP	41	192	5	B	0	L1
TTP	42	0	0	C	0	L1
TTP	42	0	1	B	0	L1
TTP	42	0	6	B	0	L1
TAP	43	0	0
TAP	43	0	7
TAP	43	96	1
TAP	43	96	6
TAP	43	192	2
TAP	43	240	2
TAP	43	288	2
TAP	44	0	3
TAP	44	0	4
TAP	44	96	2
TAP	44	96	5
TAP	44	192	6
TAP	44	240	6
TAP	44	288	6
TAP	45	0	6
TAP	45	0	7
TAP	45	96	6
TAP	45	96	7
TAP	45	192	0
TAP	45	192	7
TAP	45	288	0
TAP	45	288	7
TAP	46	0	0
TAP	46	0	1
TAP	46	96	0
TAP	46	96	1
TAP	46	192	2
TAP	46	192	7
TAP	47	0	3
TAP	47	0	4
TAP	47	96	2
TAP	47	96	5
TAP	47	192	1
TAP	47	240	1
TAP	47	288	1
TAP	48	0	0
TAP	48	0	7
TAP	48	96	1
TAP	48	96	6
TAP	48	192	5
TAP	48	240	5
TAP	48	288	5
TAP	49	0	4
TAP	49	0	5
TAP	49	96	4
TAP	49	96	5
TAP	49	192	3
TAP	49	192	4
TAP	49	288	3
TAP	49	288	4
HLD	50	0	2	96
HLD	50	0	3	96
XTP	50	192	1
XTP	50	192	4
BRK	51	0	4
BRK	51	0	5
TAP	51	96	3
TAP	51	96	6
TAP	51	192	5
TAP	51	240	5
TAP	51	288	4
TAP	52	0	2
TAP	52	0	3
TAP	52	96	1
TAP	52	96	4
TAP	52	192	2
TAP	52	240	2
TAP	52	288	3
TAP	53	0	2
TAP	53	0	4
TAP	53	96	2
TAP	53	96	4
TAP	53	192	3
TAP	53	192	5
TAP	53	288	3
TAP	53	288	5
TAP	54	0	2
TAP	54	0	4
TAP	54	96	1
TAP	54	96	5
XTP	54	192	0
XTP	54	192	6
XTP	55	0	0
XTP	55	0	1
TAP	55	96	2
TAP	55	96	7
TAP	55	192	1
TAP	55	240	1
TAP	55	288	0
TAP	56	0	6
TAP	56	0	7
TAP	56	96	0
TAP	56	96	5
TAP	56	192	6
TAP	56	240	6
TAP	56	288	7
HLD	57	0	4	96
HLD	57	0	5	96
HLD	57	192	2	96
HLD	57	192	3	96
HLD	58	0	3	96
HLD	58	0	4	96
XTP	58	192	1
XTP	58	192	6
STR	59	0	0
SXL	59	0	0	96	480	3
STR	61	0	4
SXL	61	0	4	96	480	7
STR	63	0	0
SXL	63	0	0	96	480	5
STR	65	0	6
SXL	65	0	6	96	480	3
HLD	67	0	2	192
HLD	67	192	3	192
TAP	68	0	4
TAP	68	192	3
TAP	68	192	4
HLD	69	0	6	192
HLD	69	192	5	192
TAP	70	0	4
TAP	70	192	3
TAP	70	192	4
TAP	71	0	2
TAP	71	96	2
TAP	71	192	3
TAP	71	288	3
TAP	72	0	4
TAP	72	96	4
TAP	72	192	4
TAP	72	192	5
TAP	73	0	4
TAP	73	96	4
TAP	73	192	3
TAP	73	288	3
HLD	74	0	3	96
HLD	74	0	4	96
XTP	74	192	2
XTP	74	192	5
XHO	75	0	1	96
XHO	75	0	6	96
TAP	75	192	1
TAP	75	192	6
TAP	75	288	1
TAP	75	288	6
TAP	76	0	2
TAP	76	96	1
TAP	76	96	3
TAP	76	192	5
TAP	76	288	4
TAP	76	288	6
TAP	77	0	3
TAP	77	96	2
TAP	77	96	4
TAP	77	192	1
TAP	77	240	1
TAP	77	288	1
TAP	78	0	0
TAP	78	96	1
TAP	78	96	7
TAP	78	192	2
TAP	78	192	6
TAP	79	0	2
TAP	79	96	1
TAP	79	96	3
TAP	79	192	5
TAP	79	288	4
TAP	79	288	6
TAP	80	0	7
TAP	80	48	7
TAP	80	96	7
TAP	80	192	0
TAP	80	192	6
TAP	80	288	1
TAP	80	288	5
TAP	81	0	2
TAP	81	0	4
TAP	81	96	2
TAP	81	96	4
TAP	81	192	3
TAP	81	192	5
TAP	81	288	3
TAP	81	288	5
TAP	82	0	6
TAP	82	0	7
TAP	82	96	0
TAP	82	96	5
BRK	82	192	1
BRK	82	192	4
TAP	83	0	2
TAP	83	48	2
TAP	83	96	3
TAP	83	192	3
TAP	83	192	4
TAP	83	288	2
TAP	83	288	5
TAP	84	0	6
TAP	84	48	6
TAP	84	96	7
TAP	84	192	0
TAP	84	192	7
TAP	84	288	1
TAP	84	288	6
TAP	85	0	2
TAP	85	48	2
TAP	85	96	3
TAP	85	192	5
TAP	85	240	5
TAP	85	288	4
TAP	86	0	2
TAP	86	0	3
TAP	86	96	1
TAP	86	96	4
XTP	86	192	0
XTP	86	192	5
TAP	87	0	1
TAP	87	48	1
TAP	87	96	0
TAP	87	192	2
TAP	87	192	7
TAP	87	288	3
TAP	87	288	6
TAP	88	0	5
TAP	88	48	5
TAP	88	96	4
TAP	88	192	2
TAP	88	192	3
TAP	88	288	1
TAP	88	288	4
TAP	89	0	3
TAP	89	0	5
TAP	89	48	3
TAP	89	48	5
TAP	89	96	3
TAP	89	96	5
TAP	89	192	2
TAP	89	192	4
TAP	89	240	2
TAP	89	240	4
TAP	89	288	2
TAP	89	288	4
TAP	90	0	1
TAP	90	96	1
BRK	90	192	1
BRK	90	192	7
THO	91	0	0	1152	C	0	L1
TTP	95	0	6	E	0	L1
TTP	95	192	4	B	0	L1
TTP	95	192	5	E	0	L1
TTP	96	0	2	E	0	L1
TTP	96	192	3	B	0	L1
TTP	96	192	3	E	0	L1
TTP	97	0	4	E	0	L1
TTP	97	192	3	E	0	L1
TTP	97	192	5	E	0	L1
THO	98	0	0	288	C	0	L1
TTP	98	0	2	B	0	L1
TTP	98	0	5	B	0	L1

T_REC_TAP	289
T_REC_BRK	6
T_REC_XTP	16
T_REC_HLD	26
T_REC_XHO	5
T_REC_STR	4
T_REC_BST	0
T_REC_XST	0
T_REC_TTP	33
T_REC_THO	2
T_REC_SLD	4
T_REC_ALL	385
T_NUM_TAP	342
T_NUM_BRK	6
T_NUM_HLD	33
T_NUM_SLD	4
T_NUM_ALL	385
T_JUDGE_TAP	348
T_JUDGE_HLD	146
T_JUDGE_SLD	4
T_JUDGE_ALL	498
TTM_EACHPAIRS	108
TTM_SCR_TAP	171000
TTM_SCR_BRK	15600
TTM_SCR_HLD	33000
TTM_SCR_SLD	6000
TTM_SCR_ALL	225600
TTM_SCR_S	218250
TTM_SCR_SS	225000
TTM_RAT_ACV	10026

