VERSION	0.00.00	1.03.00
FES_MODE	0
BPM_DEF	172.000	172.000	172.000	172.000
MET_DEF	4	4
RESOLUTION	384
CLK_DEF	384
COMPATIBLE_CODE	MA2

BPM	0	0	172.000
MET	0	0	4	4

HLD	3	0	0	768
HLD	7	0	7	768
TAP	11	0	0
TAP	11	192	0
TAP	12	0	0
TAP	13	0	1
TAP	13	192	1
TAP	14	0	1
TAP	15	0	2
TAP	15	192	2
TAP	16	0	3
TAP	16	192	3
TAP	17	0	4
TAP	17	192	4
TAP	18	0	3
TAP	18	0	4
XTP	19	0	3
XTP	19	0	4
TAP	20	0	3
TAP	20	0	4
BRK	20	192	3
BRK	20	192	4
TAP	21	0	5
TAP	21	192	5
TAP	22	0	5
TAP	22	96	5
TAP	22	192	5
TAP	23	0	6
TAP	23	192	6
TAP	24	0	6
TAP	24	96	6
TAP	24	192	6
TAP	25	0	7
TAP	25	192	7
TAP	26	0	7
TAP	26	96	0
XTP	26	192	7
TAP	27	0	0
TAP	27	192	0
TAP	28	0	0
TAP	28	96	0
TAP	28	192	0
TAP	29	0	1
TAP	29	192	1
TAP	30	0	1
TAP	30	96	1
TAP	30	192	1
TAP	31	0	2
TAP	31	192	2
TAP	32	0	2
TAP	32	96	2
TAP	32	192	2
TAP	33	0	3
TAP	33	0	4
TAP	33	192	3
TAP	33	192	4
TAP	34	0	3
TAP	34	96	4
BRK	34	192	3
TTP	35	0	4	B	0	L1
TTP	36	0	3	B	0	L1
TTP	37	0	5	B	0	L1
TTP	38	0	2	B	0	L1
TTP	39	0	6	B	0	L1
TTP	40	0	1	B	0	L1
THO	41	0	0	384	C	1	L1
STR	43	0	7
SI_	43	0	7	96	288	3
TAP	45	0	2
TAP	45	192	2
TAP	46	0	2
TAP	46	0	3
STR	47	0	1
SI_	47	0	1	96	288	5
TAP	49	0	6
TAP	49	192	6
TAP	50	0	6
TAP	50	0	7
XTP	51	0	5
TAP	51	192	5
TAP	52	0	4
TAP	52	192	4
TAP	53	0	3
TAP	53	192	3
TAP	54	0	2
TAP	54	0	4
TAP	55	0	1
TAP	55	192	1
TAP	56	0	0
TAP	56	192	0
TAP	57	0	7
TAP	57	192	7
TAP	58	0	0
TAP	58	0	6
HLD	59	0	0	768
TAP	62	0	0
HLD	63	0	7	768
TAP	66	0	7
TAP	67	0	0
TAP	67	192	0
TAP	68	0	1
TAP	68	192	1
TAP	69	0	2
TAP	69	192	2
TAP	70	0	3
TAP	70	192	3
TAP	71	0	4
TAP	71	192	4
TAP	72	0	5
TAP	72	192	5
TAP	73	0	6
TAP	73	192	6
HLD	74	0	0	384
HLD	74	0	7	384
TAP	76	0	0
TAP	76	0	7
BRK	76	192	0
BRK	76	192	7
TAP	77	0	6
TAP	77	96	6
TAP	77	192	6
TAP	78	0	6
TAP	78	96	6
TAP	78	192	6
TAP	78	192	7
TAP	79	0	5
TAP	79	96	5
TAP	79	192	5
TAP	80	0	5
TAP	80	96	5
TAP	80	192	5
TAP	81	0	4
TAP	81	96	4
TAP	81	192	4
TAP	82	0	3
TAP	82	0	4
TAP	82	96	3
TAP	82	96	4
XTP	82	192	3
XTP	82	192	4
TAP	83	0	3
TAP	83	96	3
TAP	83	192	3
TAP	84	0	3
TAP	84	96	3
TAP	84	192	3
TAP	85	0	2
TAP	85	96	2
TAP	85	192	2
TAP	86	0	2
TAP	86	96	2
TAP	86	192	2
TAP	86	192	3
TAP	87	0	1
TAP	87	96	1
TAP	87	192	1
TAP	88	0	1
TAP	88	96	1
TAP	88	192	1
TAP	89	0	0
TAP	89	96	0
TAP	89	192	0
TAP	90	0	0
TAP	90	0	7
TAP	90	96	0
TAP	90	96	7
BRK	90	192	0
BRK	90	192	7
HLD	91	0	0	384
TAP	93	0	0
TAP	93	192	0
TAP	94	0	0
TAP	94	96	0
TAP	94	192	0
HLD	95	0	7	384
TAP	97	0	7
TAP	97	192	7
TAP	98	0	7
TAP	98	96	7
TAP	98	192	0
TAP	98	288	0

T_REC_TAP	149
T_REC_BRK	7
T_REC_XTP	6
T_REC_HLD	8
T_REC_XHO	0
T_REC_STR	2
T_REC_BST	0
T_REC_XST	0
T_REC_TTP	6
T_REC_THO	1
T_REC_SLD	2
T_REC_ALL	181
T_NUM_TAP	163
T_NUM_BRK	7
T_NUM_HLD	9
T_NUM_SLD	2
T_NUM_ALL	181
T_JUDGE_TAP	170
T_JUDGE_HLD	104
T_JUDGE_SLD	2
T_JUDGE_ALL	276
TTM_EACHPAIRS	21
TTM_SCR_TAP	81500
TTM_SCR_BRK	18200
TTM_SCR_HLD	9000
TTM_SCR_SLD	3000
TTM_SCR_ALL	111700
TTM_SCR_S	107700
TTM_SCR_SS	111000
TTM_RAT_ACV	10063

