VERSION	0.00.00	1.03.00
FES_MODE	0
BPM_DEF	165.000	165.000	165.000	165.000
MET_DEF	4	4
RESOLUTION	384
CLK_DEF	384
COMPATIBLE_CODE	MA2

BPM	0	0	165.000
MET	0	0	4	4

STR	2	0	3
SSL	2	0	3	96	384	7
SSR	2	0	3	96	384	7
TAP	3	192	6
STR	4	0	5
SCL	4	0	5	96	192	2
STR	5	0	1
SCR	5	0	1	96	192	5
STR	6	0	6
SSR	6	0	6	96	192	2
STR	7	0	1
SSL	7	0	1	96	192	5
STR	8	0	7
SI_	8	0	7	96	96	3
STR	8	288	2
SCL	8	288	2	96	192	4
TTP	9	192	0	C	1	M1
XTP	9	288	0
XTP	9	288	7
HLD	10	0	1	672
TAP	10	0	5
TAP	10	96	2
TAP	10	144	2
TAP	10	240	4
TAP	10	288	4
TAP	11	0	3
TAP	11	48	3
TAP	11	144	5
STR	11	192	5
SI_	11	192	5	96	48	3
TAP	12	0	2
HLD	12	0	6	672
TAP	12	96	5
TAP	12	144	5
TAP	12	240	3
TAP	12	288	3
TAP	13	0	4
TAP	13	48	4
TAP	13	144	2
STR	13	192	2
SI_	13	192	2	96	48	4
TAP	14	0	5
TAP	14	48	5
TAP	14	96	4
TAP	14	96	6
TAP	14	144	4
TAP	14	144	6
TAP	14	192	2
TAP	14	240	2
TAP	14	288	1
TAP	14	288	3
TAP	14	336	1
TAP	14	336	3
TAP	15	0	2
TAP	15	24	3
TAP	15	48	1
TAP	15	72	4
TAP	15	96	0
TAP	15	120	5
TAP	15	144	7
TAP	15	168	6
TAP	15	192	1
TAP	15	216	0
TAP	15	240	2
TAP	15	264	7
XST	15	288	1
SI_	15	288	1	96	24	5
XTP	15	304	0
XTP	15	320	1
XTP	15	336	0
XTP	15	352	1
XTP	15	368	0
XTP	16	0	1
TTP	16	2	0	C	1	M1
TAP	17	0	4
TAP	17	32	4
TAP	17	64	4
TAP	17	96	3
TAP	17	128	3
TAP	17	160	3
TAP	17	192	6
TAP	17	204	5
TAP	17	216	4
TAP	17	228	3
TAP	17	240	2
TAP	17	252	1
TAP	17	264	0
TAP	17	276	7
BRK	17	288	2
TAP	17	288	6
TAP	18	0	0
TAP	18	0	4
TAP	18	96	2
HLD	18	96	7	48
TAP	18	144	3
TAP	18	192	1
HLD	18	192	7	48
TAP	18	240	3
HLD	18	288	0	48
TAP	18	288	5
TAP	18	336	4
HLD	19	0	0	48
TAP	19	0	6
TAP	19	48	4
TAP	19	96	0
TAP	19	120	7
TAP	19	144	0
TAP	19	168	7
TAP	19	192	1
TAP	19	216	6
TAP	19	240	1
TAP	19	264	6
TAP	19	288	0
TAP	19	312	0
XTP	19	360	1
XTP	19	360	6
HLD	20	96	0	48
TAP	20	96	5
TAP	20	144	4
HLD	20	192	0	48
TAP	20	192	6
TAP	20	240	4
XTP	20	288	1
XTP	20	288	7
HLD	21	0	2	48
HLD	21	0	6	48
HLD	21	72	1	48
HLD	21	72	5	48
TAP	21	144	0
TAP	21	144	4
TAP	21	192	1
TAP	21	216	3
TAP	21	240	2
TAP	21	264	4
TAP	21	288	3
TAP	21	312	5
TAP	21	336	4
TAP	21	360	6
HLD	22	0	3	48
HLD	22	0	7	48
HLD	22	72	0	48
HLD	22	72	6	48
HLD	22	144	3	48
HLD	22	144	4	48
HLD	22	216	1	48
HLD	22	216	7	48
XTP	22	288	0
XTP	22	288	5
TAP	22	360	0
TAP	22	360	1
HLD	23	0	0	48
HLD	23	0	1	48
HLD	23	72	3	48
HLD	23	72	4	48
HLD	23	144	6	48
HLD	23	144	7	48
HLD	23	216	3	48
HLD	23	216	4	48
BRK	23	288	2
BRK	23	288	6
TTP	24	0	5	E	0	M1
TTP	24	16	4	B	0	M1
TTP	24	32	3	B	0	M1
TTP	24	48	3	E	0	M1
TAP	24	192	1
TAP	24	224	3
TAP	24	256	2
TAP	24	288	6
TAP	24	320	4
TAP	24	352	5
TAP	25	0	0
TAP	25	32	2
TAP	25	64	1
TAP	25	96	7
TAP	25	128	5
TAP	25	160	6
TAP	25	192	3
TAP	25	216	4
TAP	25	240	2
TAP	25	264	5
TAP	25	288	0
TAP	25	312	7
TAP	25	336	0
TAP	25	360	7
STR	26	0	1
SLR	26	0	1	96	288	7
TAP	26	0	6
STR	27	0	6
SLL	27	0	6	96	288	0
TAP	28	0	1
TAP	28	192	3
TTP	29	0	6	B	0	M1
TTP	29	24	7	B	0	M1
TTP	29	48	0	B	0	M1
TTP	29	72	1	B	0	M1
TTP	29	96	2	B	0	M1
TTP	29	120	3	B	0	M1
TTP	29	144	4	B	0	M1
TTP	29	168	5	B	0	M1
TTP	29	192	0	C	0	M1
XTP	29	288	0
XTP	29	288	7
STR	30	0	1
SLR	30	0	1	96	288	7
TAP	30	0	6
TTP	30	192	4	B	0	M1
TTP	30	192	5	B	0	M1
STR	31	0	6
SLL	31	0	6	96	288	0
TTP	31	192	2	B	0	M1
TTP	31	192	3	B	0	M1
STR	32	0	2
SLL	32	0	2	96	288	4
TTP	32	192	4	B	0	M1
TTP	32	192	5	B	0	M1
HLD	33	0	6	192
XTP	33	192	3
TAP	33	216	5
TAP	33	240	4
XTP	33	264	6
TAP	33	288	4
TAP	33	312	5
TAP	33	336	4
TAP	34	0	3
TAP	34	0	7
TAP	34	96	3
TAP	34	96	6
TAP	34	168	5
TAP	34	192	4
TAP	34	240	4
TAP	34	288	3
TAP	34	288	5
TAP	35	0	3
TAP	35	0	4
TAP	35	96	2
TAP	35	96	5
TAP	35	168	4
TAP	35	192	3
TAP	35	240	3
TAP	35	288	2
TAP	35	288	4
TAP	36	0	2
TAP	36	0	3
TAP	36	96	1
TAP	36	96	4
TAP	36	168	2
TAP	36	192	3
TAP	36	240	3
TAP	36	288	2
TAP	36	288	4
TAP	37	0	3
TAP	37	0	4
TAP	37	96	2
TAP	37	96	5
TAP	37	168	3
TAP	37	192	4
TAP	37	240	4
XTP	37	288	1
XTP	37	288	6
HLD	38	0	1	48
HLD	38	0	7	48
HLD	38	96	2	48
HLD	38	96	3	48
HLD	38	192	1	48
HLD	38	192	7	48
HLD	38	288	2	48
HLD	38	288	3	48
HLD	39	0	0	48
HLD	39	0	6	48
HLD	39	96	4	48
HLD	39	96	5	48
HLD	39	192	0	48
HLD	39	192	6	48
STR	39	288	4
SI_	39	288	4	96	96	0
SSL	39	288	4	96	96	0
TAP	39	288	5
XTP	40	192	7
TTP	40	288	1	B	0	M1
TTP	40	312	7	B	0	M1
TTP	40	336	3	B	0	M1
TTP	40	360	5	B	0	M1
TTP	41	0	0	B	0	M1
TTP	41	24	6	B	0	M1
TTP	41	48	2	B	0	M1
TTP	41	72	4	B	0	M1
THO	41	96	0	48	C	0	M1
BRK	41	192	7
TAP	41	288	1
TAP	41	288	6
TAP	42	0	2
STR	42	0	5
SCL	42	0	5	96	240	2
TAP	42	288	1
XST	43	0	1
SUR	43	0	1	96	240	6
STR	44	0	7
SCL	44	0	7	96	240	2
XTP	45	0	0
TAP	45	96	0
TAP	45	120	7
TAP	45	144	1
TAP	45	168	6
TAP	45	192	2
TAP	45	216	5
TAP	45	240	3
TAP	45	264	4
TAP	45	288	3
TAP	46	0	4
HLD	46	0	6	144
TAP	46	48	4
TAP	46	96	4
TAP	46	144	4
XTP	46	192	6
XTP	46	192	7
TAP	46	240	6
TAP	46	288	4
HLD	46	288	6	144
TAP	46	336	4
TAP	47	0	4
TAP	47	48	4
TAP	47	96	4
HLD	47	96	6	48
TAP	47	144	4
XTP	47	192	6
XTP	47	192	7
TAP	47	240	0
TAP	47	288	1
TAP	47	288	6
HLD	48	0	1	144
TAP	48	0	3
TAP	48	48	3
TAP	48	96	3
TAP	48	144	3
XTP	48	192	0
XTP	48	192	1
TAP	48	240	1
HLD	48	288	1	144
TAP	48	288	3
TAP	48	336	3
TAP	49	0	3
TAP	49	48	3
HLD	49	96	1	48
TAP	49	96	3
TAP	49	144	3
XTP	49	192	0
XTP	49	192	1
TAP	49	240	7
BRK	49	288	1
BRK	49	288	6
TAP	50	0	3
HLD	50	0	5	288
TAP	50	192	4
TAP	50	240	4
TAP	50	288	3
HLD	50	336	1	336
TAP	50	336	4
TAP	51	96	3
TAP	51	192	5
XTP	51	288	7
HLD	52	0	3	96
HLD	52	0	5	96
HLD	52	192	1	96
HLD	52	192	4	96
HLD	53	0	3	96
HLD	53	0	7	96
BRK	53	192	1
HLD	53	192	5	192
TAP	54	0	1
TAP	54	16	2
HLD	54	32	3	640
TAP	55	0	6
TAP	55	16	5
HLD	55	32	4	256
TAP	56	0	3
TAP	56	24	4
TAP	56	48	3
TAP	56	72	4
TAP	56	96	2
TAP	56	120	5
TAP	56	144	2
TAP	56	168	5
TAP	56	192	1
TAP	56	216	6
TAP	56	240	1
TAP	56	264	6
TAP	56	288	0
TAP	56	312	7
TAP	56	336	0
TAP	56	360	7
TAP	57	0	1
TAP	57	16	2
TAP	57	32	3
TAP	57	64	7
TAP	57	96	2
TAP	57	112	3
TAP	57	128	4
TAP	57	160	7
TAP	57	192	1
TAP	57	204	2
TAP	57	216	3
TAP	57	228	4
TAP	57	240	5
TAP	57	252	6
TAP	57	264	7
TAP	57	276	0
TAP	57	288	1
BRK	57	288	5
STR	58	0	1
SV_	58	0	1	96	48	4
TAP	58	24	0
TAP	58	48	2
TAP	58	72	0
TAP	58	96	1
TAP	58	144	7
STR	58	192	6
SV_	58	192	6	96	48	3
TAP	58	216	7
TAP	58	240	5
TAP	58	264	7
TAP	58	288	6
TAP	58	336	0
TAP	59	0	2
TAP	59	24	3
TAP	59	72	5
STR	59	96	4
SF_	59	96	4	96	48	0
TAP	59	144	2
TAP	59	144	6
TAP	59	192	4
TAP	59	288	2
TAP	59	288	6
TAP	59	336	0
STR	60	0	6
SV_	60	0	6	96	48	3
TAP	60	24	7
TAP	60	48	5
TAP	60	72	7
TAP	60	96	6
TAP	60	144	0
STR	60	192	1
SV_	60	192	1	96	48	4
TAP	60	216	0
TAP	60	240	2
TAP	60	264	0
TAP	60	288	1
TAP	60	336	7
XST	61	0	0
SCR	61	0	0	96	48	2
XST	61	0	6
SUR	61	0	6	96	48	2
XST	61	96	0
SUL	61	96	0	96	48	4
XST	61	96	6
SCL	61	96	6	96	48	4
XST	61	192	0
SV_	61	192	0	96	48	3
XST	61	192	6
SV_	61	192	6	96	48	3
XTP	61	288	0
XTP	61	288	6
TAP	62	0	1
TAP	62	0	5
TAP	62	48	2
TAP	62	96	3
HLD	62	96	7	96
TAP	62	192	1
TAP	62	216	3
TAP	62	240	2
TAP	62	264	4
TAP	62	288	3
TAP	62	312	5
TAP	62	336	4
STR	63	0	0
SI_	63	0	0	96	48	4
TAP	63	0	6
TAP	63	48	1
STR	63	96	0
SCL	63	96	0	96	48	5
TAP	63	96	2
STR	63	192	0
SCR	63	192	0	96	48	2
STR	63	288	0
SV_	63	288	0	96	48	3
SV_	63	288	0	96	48	5
TAP	64	0	0
TAP	64	96	2
TAP	64	96	6
TAP	64	144	7
TAP	64	192	2
TAP	64	216	0
TAP	64	240	1
TAP	64	264	7
TAP	64	288	0
TAP	64	312	6
TAP	64	336	7
TAP	65	0	0
TAP	65	0	6
TAP	65	48	1
TAP	65	48	5
TAP	65	96	2
STR	65	96	4
SI_	65	96	4	96	48	1
SI_	65	96	4	96	48	7
TAP	65	144	3
TAP	65	144	5
TAP	65	192	4
BRK	65	288	2
BRK	65	288	6
STR	66	0	5
SI_	66	0	5	96	48	0
TAP	66	24	4
TAP	66	48	6
TAP	66	72	4
TAP	66	96	5
TAP	66	144	1
STR	66	192	2
SI_	66	192	2	96	48	7
TAP	66	216	3
TAP	66	240	1
TAP	66	264	3
TAP	66	288	2
TAP	66	336	4
TAP	67	0	6
TAP	67	24	7
TAP	67	72	1
STR	67	96	0
SF_	67	96	0	96	48	4
TAP	67	144	2
TAP	67	144	6
TAP	67	192	0
TAP	67	288	2
TAP	67	288	6
TAP	67	336	4
STR	68	0	2
SI_	68	0	2	96	48	7
TAP	68	24	3
TAP	68	48	1
TAP	68	72	3
TAP	68	96	2
TAP	68	144	6
STR	68	192	5
SI_	68	192	5	96	48	0
TAP	68	216	4
TAP	68	240	6
TAP	68	264	4
TAP	68	288	5
TAP	68	336	3
XST	69	0	1
SUL	69	0	1	96	48	5
XST	69	0	7
SCL	69	0	7	96	48	5
XST	69	96	1
SCR	69	96	1	96	48	3
XST	69	96	7
SUR	69	96	7	96	48	3
XST	69	192	1
SV_	69	192	1	96	48	4
XST	69	192	7
SV_	69	192	7	96	48	4
XTP	69	288	1
XTP	69	288	7
HLD	70	0	2	672
HLD	70	0	6	672
TAP	71	300	1
TAP	71	300	5
TAP	71	312	0
TAP	71	312	4
TAP	71	324	3
TAP	71	324	7
TAP	72	0	1
TAP	72	24	4
TAP	72	48	3
TAP	72	72	4
TAP	72	96	2
TAP	72	120	5
TAP	72	144	4
TAP	72	168	5
TAP	72	192	3
TAP	72	216	6
TAP	72	240	5
TAP	72	264	6
TAP	72	288	7
TAP	72	312	6
TAP	72	336	0
TAP	72	360	6
TAP	73	0	1
TAP	73	16	2
TAP	73	32	3
TAP	73	48	4
TAP	73	64	5
TAP	73	80	6
TAP	73	96	7
TAP	73	112	0
TAP	73	128	1
TAP	73	144	2
TAP	73	160	3
TAP	73	176	4
TAP	73	192	5
STR	73	192	7
SF_	73	192	7	96	48	3
BRK	73	288	7
TAP	74	0	1
TAP	74	0	5
TAP	74	96	2
HLD	74	96	7	48
TAP	74	144	4
TAP	74	192	1
HLD	74	192	7	48
TAP	74	240	3
HLD	74	288	0	48
TAP	74	288	5
TAP	74	336	3
HLD	75	0	0	48
TAP	75	0	6
TAP	75	48	4
TAP	75	96	0
TAP	75	120	7
TAP	75	144	1
TAP	75	168	7
TAP	75	192	2
TAP	75	216	6
TAP	75	240	2
TAP	75	264	5
TAP	75	288	3
TAP	75	312	4
TAP	75	336	3
TAP	76	0	2
TAP	76	0	5
TTP	76	96	0	B	0	M1
TTP	76	96	1	E	0	M1
TTP	76	96	7	B	0	M1
TTP	76	96	7	E	0	M1
TTP	76	192	3	B	0	M1
TTP	76	192	3	E	0	M1
TTP	76	192	4	B	0	M1
TTP	76	192	5	E	0	M1
XTP	76	288	1
XTP	76	288	6
HLD	77	0	0	48
HLD	77	0	6	48
HLD	77	72	2	48
HLD	77	72	3	48
TAP	77	144	1
TAP	77	144	7
HLD	77	192	1	48
HLD	77	192	7	48
HLD	77	264	4	48
HLD	77	264	5	48
TAP	77	336	0
TAP	77	336	6
STR	78	0	0
SI_	78	0	0	96	48	3
STR	78	0	6
SI_	78	0	6	96	48	3
TAP	78	96	0
TAP	78	96	6
STR	78	192	2
SI_	78	192	2	96	48	5
STR	78	192	6
SI_	78	192	6	96	48	1
TAP	78	288	2
TAP	78	288	6
TAP	79	0	0
TAP	79	0	4
TAP	79	48	3
TAP	79	48	7
STR	79	96	2
SI_	79	96	2	96	48	7
STR	79	96	6
SI_	79	96	6	96	48	3
TAP	79	192	2
TAP	79	192	6
TAP	79	288	1
TAP	79	288	5
HLD	80	0	4	48
HLD	80	0	6	48
HLD	80	72	1	48
HLD	80	72	3	48
TAP	80	144	2
TAP	80	144	6
TAP	80	192	0
TAP	80	192	4
TAP	80	240	1
TAP	80	240	5
TAP	80	288	2
TAP	80	288	6
HLD	80	336	3	240
TAP	80	336	7
TAP	81	48	7
TAP	81	96	7
TAP	81	192	6
TAP	81	216	4
TAP	81	240	5
TAP	81	264	3
TAP	81	288	4
TAP	81	312	2
TAP	81	336	3
TAP	81	360	1
STR	82	0	0
SSL	82	0	0	96	48	4
STR	82	0	7
SSR	82	0	7	96	48	3
TAP	82	96	0
TAP	82	96	7
TAP	82	192	2
HLD	82	192	7	48
TAP	82	240	4
TAP	82	288	1
HLD	82	288	7	48
TAP	82	336	3
HLD	83	0	0	48
TAP	83	0	5
TAP	83	48	3
TAP	83	96	1
TAP	83	120	3
TAP	83	144	2
TAP	83	168	4
TAP	83	192	3
TAP	83	216	5
TAP	83	240	4
TAP	83	264	6
STR	83	288	3
SI_	83	288	3	96	144	7
STR	83	288	7
SSR	83	288	7	96	144	3
STR	84	192	0
SI_	84	192	0	96	48	3
SI_	84	192	0	96	48	5
TAP	84	288	0
HLD	85	0	2	48
HLD	85	0	6	48
HLD	85	72	1	48
HLD	85	72	5	48
TAP	85	144	0
TAP	85	144	4
TAP	85	192	0
TAP	85	216	3
TAP	85	240	2
TAP	85	264	7
TAP	85	288	4
TAP	85	312	5
TAP	85	336	0
TAP	85	360	7
BRK	86	0	1
BRK	86	0	6
TAP	86	96	2
HLD	86	96	7	48
TAP	86	144	4
TAP	86	192	1
HLD	86	192	7	48
TAP	86	240	3
HLD	86	288	0	48
TAP	86	288	5
TAP	86	336	3
BRK	87	0	0
HLD	87	0	6	48
TAP	87	48	4
HLD	87	96	1	48
BRK	87	96	7
TAP	87	144	3
TAP	87	192	0
TAP	87	192	6
TAP	87	240	3
TAP	87	240	4
BRK	87	288	2
BRK	87	288	6
TAP	88	0	1
TAP	88	0	2
TAP	88	48	5
TAP	88	48	6
TAP	88	96	0
TAP	88	96	7
TAP	88	144	3
TAP	88	144	4
TAP	88	192	0
TAP	88	192	7
TAP	88	240	1
TAP	88	240	6
TAP	88	288	2
TAP	88	288	5
TAP	88	336	3
TAP	88	336	4
TAP	89	0	3
HLD	89	0	4	48
TAP	89	24	2
TAP	89	48	1
TAP	89	72	0
TAP	89	96	7
TAP	89	120	6
TAP	89	144	5
TAP	89	168	4
TAP	89	192	3
TAP	89	192	7
TAP	89	216	2
TAP	89	216	6
TAP	89	240	1
TAP	89	240	5
TAP	89	264	0
TAP	89	264	4
TAP	89	288	3
TAP	89	288	7
BRK	90	0	1
BRK	90	0	5
TAP	90	16	2
TAP	90	16	6
TAP	90	32	3
TAP	90	32	7
TAP	90	48	0
HLD	90	48	4	672
TTP	91	336	3	B	0	M1
TTP	91	348	3	E	0	M1

T_REC_TAP	501
T_REC_BRK	19
T_REC_XTP	37
T_REC_HLD	94
T_REC_XHO	0
T_REC_STR	44
T_REC_BST	0
T_REC_XST	14
T_REC_TTP	39
T_REC_THO	1
T_REC_SLD	63
T_REC_ALL	812
T_NUM_TAP	635
T_NUM_BRK	19
T_NUM_HLD	95
T_NUM_SLD	63
T_NUM_ALL	812
T_JUDGE_TAP	654
T_JUDGE_HLD	214
T_JUDGE_SLD	63
T_JUDGE_ALL	931
TTM_EACHPAIRS	167
TTM_SCR_TAP	317500
TTM_SCR_BRK	49400
TTM_SCR_HLD	95000
TTM_SCR_SLD	94500
TTM_SCR_ALL	556400
TTM_SCR_S	537900
TTM_SCR_SS	554500
TTM_RAT_ACV	10034

