VERSION	0.00.00	1.03.00
FES_MODE	0
BPM_DEF	165.000	165.000	165.000	165.000
MET_DEF	4	4
RESOLUTION	384
CLK_DEF	384
COMPATIBLE_CODE	MA2

BPM	0	0	165.000
MET	0	0	4	4

STR	2	0	3
SV_	2	0	3	96	576	0
SV_	2	0	3	96	576	6
STR	4	0	7
SLL	4	0	7	96	576	3
SLR	4	0	7	96	576	3
STR	6	0	2
SCR	6	0	2	96	192	5
STR	7	0	5
SCL	7	0	5	96	192	2
STR	8	0	1
SUR	8	0	1	96	192	6
TAP	9	0	7
TAP	9	96	0
TAP	9	192	0
TAP	9	192	7
BRK	9	288	1
BRK	9	288	6
HLD	10	0	5	144
HLD	10	144	7	144
HLD	10	288	6	144
HLD	11	48	4	144
TAP	11	192	5
TAP	11	288	3
TAP	11	288	4
HLD	12	0	2	144
HLD	12	144	0	144
HLD	12	288	1	144
HLD	13	48	3	144
TAP	13	192	2
TAP	13	288	3
TAP	13	288	4
TAP	14	0	5
TAP	14	48	5
TAP	14	96	3
TAP	14	144	3
TAP	14	192	4
TAP	14	240	4
TAP	14	288	2
TAP	14	336	2
TAP	15	0	5
TAP	15	48	5
TAP	15	96	4
TAP	15	144	6
TAP	15	192	2
TAP	15	240	2
STR	15	288	3
SUR	15	288	3	96	288	4
HLD	17	0	3	96
HLD	17	96	4	96
HLD	17	192	3	96
BRK	17	288	7
TAP	18	0	4
TAP	18	0	5
TAP	18	96	0
TAP	18	96	6
TAP	18	192	2
TAP	18	192	3
TAP	18	288	1
TAP	18	288	7
STR	19	0	6
SI_	19	0	6	96	48	4
STR	19	96	7
SI_	19	96	7	96	48	3
TAP	19	192	6
XHO	19	288	7	72
XTP	19	360	0
TAP	20	96	3
TAP	20	96	5
TAP	20	192	0
TAP	20	192	7
TAP	20	288	2
TAP	20	288	4
XTP	21	0	0
XTP	21	0	6
XTP	21	72	0
XTP	21	72	6
XTP	21	144	1
XTP	21	144	7
STR	21	192	1
SUR	21	192	1	96	48	6
TAP	21	192	7
HLD	22	0	7	288
XTP	22	72	5
XTP	22	144	5
XTP	22	216	4
XTP	22	288	4
HLD	23	0	3	288
XTP	23	72	1
XTP	23	144	1
XTP	23	216	0
XST	23	288	0
SCR	23	288	0	96	336	7
THO	25	0	0	384	C	0	M1
HLD	26	192	5	576
TAP	26	288	4
TAP	27	0	4
TAP	27	192	3
TAP	27	288	3
HLD	28	0	2	384
TAP	28	192	3
STR	28	288	3
SUL	28	288	3	96	192	4
TAP	30	0	3
TAP	30	0	4
TAP	30	192	2
TAP	30	192	5
HLD	31	0	1	384
TAP	31	192	3
TAP	31	288	3
HLD	32	0	3	192
HLD	32	192	4	192
HLD	33	0	6	192
TTP	33	192	0	C	0	M1
TAP	34	0	0
TAP	34	0	7
TAP	34	96	6
HLD	34	144	6	96
TAP	34	240	4
HLD	34	288	4	96
TAP	35	0	5
HLD	35	48	5	96
TAP	35	144	7
HLD	35	192	7	96
TAP	35	288	6
TAP	36	0	0
TAP	36	0	7
TAP	36	96	1
HLD	36	144	1	96
TAP	36	240	3
HLD	36	288	3	96
TAP	37	0	2
HLD	37	48	2	96
TAP	37	144	0
HLD	37	192	0	96
TAP	37	288	1
TAP	38	0	0
TAP	38	0	6
TAP	38	48	6
TAP	38	96	4
TAP	38	192	1
TAP	38	192	7
TAP	38	240	1
TAP	38	288	3
TAP	39	0	6
TAP	39	0	7
TAP	39	48	6
TAP	39	96	4
TAP	39	192	0
TAP	39	192	1
TAP	39	240	1
STR	39	288	3
SSR	39	288	3	96	144	7
TAP	40	0	2
XST	40	192	0
SCR	40	192	0	96	192	7
SUR	40	192	0	96	192	7
BRK	41	192	0
BRK	41	192	7
HLD	42	0	6	384
TAP	42	192	4
TAP	42	288	4
TAP	43	0	4
TAP	43	192	3
TAP	43	192	4
HLD	44	0	0	384
TAP	44	192	2
TAP	44	288	2
STR	45	0	2
SCR	45	0	2	96	144	6
BRK	45	288	1
TAP	46	0	3
TAP	46	0	6
TAP	46	96	0
TAP	46	144	0
TAP	46	192	3
TAP	46	240	2
TAP	46	288	2
TAP	47	0	1
TAP	47	0	4
TAP	47	96	7
TAP	47	144	7
TAP	47	192	4
TAP	47	240	5
TAP	47	288	5
TAP	48	0	3
TAP	48	0	6
TAP	48	96	0
TAP	48	144	0
TAP	48	192	3
TAP	48	240	2
TAP	48	288	2
TAP	49	0	1
TAP	49	0	4
TAP	49	96	7
TAP	49	144	7
TAP	49	192	4
TAP	49	240	5
TAP	49	288	5
TAP	50	0	4
TAP	50	0	6
TAP	50	96	3
TAP	50	96	4
TAP	50	192	1
TAP	50	240	1
TAP	50	288	3
HLD	50	336	3	144
TAP	51	96	4
TAP	51	192	2
TAP	51	192	5
TAP	51	288	0
TAP	51	288	7
HLD	52	0	6	192
HLD	52	192	4	192
HLD	53	0	3	192
HLD	53	192	1	192
STR	54	0	6
SUL	54	0	6	96	192	1
STR	55	0	2
SCR	55	0	2	96	192	5
TAP	56	0	5
TAP	56	48	5
TAP	56	96	2
TAP	56	144	2
TAP	56	192	4
TAP	56	216	3
TAP	56	240	4
TAP	56	264	3
STR	56	288	4
SCR	56	288	4	96	192	3
BRK	57	288	1
BRK	57	288	5
STR	58	0	6
SI_	58	0	6	96	48	2
TAP	58	48	6
TAP	58	96	4
TAP	58	192	1
TAP	58	240	1
TAP	58	288	3
STR	59	0	0
SI_	59	0	0	96	48	4
STR	59	0	7
SI_	59	0	7	96	48	3
BRK	59	192	1
BRK	59	192	6
STR	60	0	6
SI_	60	0	6	96	48	1
TAP	60	48	6
TAP	60	96	4
STR	60	192	2
SI_	60	192	2	96	48	5
TAP	60	240	2
TAP	60	288	0
TAP	61	0	0
TAP	61	0	7
TAP	61	96	5
TAP	61	96	6
TAP	61	192	3
TAP	61	192	4
STR	61	288	1
SCL	61	288	1	96	96	4
STR	61	288	2
SUL	61	288	2	96	96	3
TAP	62	192	2
TAP	62	240	2
TAP	62	288	3
TAP	62	336	1
TAP	63	0	5
TAP	63	48	5
TAP	63	96	4
TAP	63	144	6
TAP	63	192	0
TAP	63	192	7
TAP	63	288	3
TAP	63	288	4
STR	64	0	4
SI_	64	0	4	96	48	0
STR	64	0	5
SI_	64	0	5	96	48	7
TAP	64	192	1
TAP	64	240	2
TAP	64	288	3
TAP	65	0	5
TAP	65	48	5
TAP	65	96	0
HLD	65	144	0	96
TAP	65	240	7
BRK	65	288	1
BRK	65	288	6
STR	66	0	2
SI_	66	0	2	96	48	7
TAP	66	48	2
TAP	66	96	4
TAP	66	192	6
TAP	66	240	6
TAP	66	288	4
STR	67	0	3
SI_	67	0	3	96	48	7
STR	67	0	4
SI_	67	0	4	96	48	0
BRK	67	192	1
BRK	67	192	6
STR	68	0	1
SI_	68	0	1	96	48	6
TAP	68	48	1
TAP	68	96	3
STR	68	192	5
SI_	68	192	5	96	48	2
TAP	68	240	5
TAP	68	288	7
TAP	69	0	0
TAP	69	0	7
TAP	69	96	1
TAP	69	96	2
TAP	69	192	3
TAP	69	192	4
STR	69	288	5
SCL	69	288	5	96	192	1
TAP	69	288	6
TAP	70	192	7
XST	70	336	2
SCR	70	336	2	96	144	6
TAP	71	288	0
TAP	72	0	1
TAP	72	48	1
TAP	72	96	6
TAP	72	144	6
TAP	72	192	0
TAP	72	216	7
TAP	72	240	0
TAP	72	264	7
STR	72	288	0
SSL	72	288	0	96	144	4
TAP	73	192	5
BRK	73	288	1
BRK	73	288	6
TAP	74	0	2
TAP	74	0	3
TAP	74	96	1
TAP	74	96	7
TAP	74	192	4
TAP	74	192	5
TAP	74	288	0
TAP	74	288	6
STR	75	0	1
SI_	75	0	1	96	48	3
STR	75	96	7
SI_	75	96	7	96	48	5
TAP	75	192	1
HLD	75	288	0	96
TAP	76	0	7
TTP	76	96	5	B	0	M1
TTP	76	96	5	E	0	M1
TTP	76	96	6	E	0	M1
TTP	76	192	2	B	0	M1
TTP	76	192	2	E	0	M1
TTP	76	192	3	E	0	M1
TTP	76	288	0	C	0	M1
XTP	77	0	1
XTP	77	0	7
XTP	77	72	1
XTP	77	72	7
XTP	77	144	1
XTP	77	144	7
XTP	77	192	0
XTP	77	192	6
XTP	77	264	0
XTP	77	264	6
XTP	77	336	0
XTP	77	336	6
STR	78	0	2
SUL	78	0	2	96	72	5
BRK	78	0	5
XST	78	192	6
SUL	78	192	6	96	72	1
STR	79	0	0
SF_	79	0	0	96	96	4
BRK	79	288	1
BRK	79	288	6
XTP	80	0	4
XTP	80	0	5
XTP	80	72	3
XTP	80	72	4
XTP	80	144	2
XTP	80	144	3
BRK	80	192	2
BRK	80	192	3
BST	80	288	1
SCR	80	288	1	96	120	6
BRK	80	288	6
BRK	80	336	1
BRK	80	336	6
HLD	81	192	7	96
HLD	81	288	0	96
BRK	82	0	7
TAP	82	96	3
TAP	82	96	5
TAP	82	192	0
TAP	82	192	1
TAP	82	288	2
TAP	82	288	4
STR	83	0	5
SI_	83	0	5	96	48	7
STR	83	96	3
SI_	83	96	3	96	48	1
STR	83	192	5
SI_	83	192	5	96	48	7
TAP	83	288	4
HLD	84	0	3	96
HLD	84	96	0	96
HLD	84	192	7	96
HLD	84	288	4	96
XTP	85	0	3
XTP	85	72	2
XTP	85	72	5
XTP	85	144	1
XTP	85	144	6
BRK	85	192	1
BST	85	192	6
SI_	85	192	6	96	48	2
TAP	86	0	1
TAP	86	96	2
TAP	86	96	3
TAP	86	192	6
TAP	86	240	6
TAP	86	288	4
TAP	86	288	5
TAP	87	0	1
TAP	87	48	1
TAP	87	96	2
TAP	87	96	3
TAP	87	192	4
TAP	87	192	5
TAP	87	288	0
TAP	87	288	7
HLD	88	0	1	144
HLD	88	144	3	192
BRK	88	336	4
TAP	89	48	1
TAP	89	48	6
TAP	89	96	1
TAP	89	96	6
TAP	89	192	7
TAP	89	216	0
TAP	89	240	7
TAP	89	264	0
STR	89	288	7
SCL	89	288	7	96	384	0

T_REC_TAP	237
T_REC_BRK	27
T_REC_XTP	37
T_REC_HLD	44
T_REC_XHO	1
T_REC_STR	39
T_REC_BST	2
T_REC_XST	4
T_REC_TTP	8
T_REC_THO	1
T_REC_SLD	48
T_REC_ALL	448
T_NUM_TAP	325
T_NUM_BRK	29
T_NUM_HLD	46
T_NUM_SLD	48
T_NUM_ALL	448
T_JUDGE_TAP	354
T_JUDGE_HLD	166
T_JUDGE_SLD	48
T_JUDGE_ALL	568
TTM_EACHPAIRS	82
TTM_SCR_TAP	162500
TTM_SCR_BRK	75400
TTM_SCR_HLD	46000
TTM_SCR_SLD	72000
TTM_SCR_ALL	355900
TTM_SCR_S	342450
TTM_SCR_SS	353000
TTM_RAT_ACV	10082

