VERSION	0.00.00	1.03.00
FES_MODE	0
BPM_DEF	165.000	165.000	165.000	165.000
MET_DEF	4	4
RESOLUTION	384
CLK_DEF	384
COMPATIBLE_CODE	MA2

BPM	0	0	165.000
MET	0	0	4	4

XHO	2	0	2	384
TAP	3	0	3
TAP	3	192	4
HLD	4	0	5	384
TAP	5	0	4
TAP	5	192	3
TAP	5	192	4
HLD	6	0	2	384
HLD	7	0	3	384
HLD	8	0	4	384
TAP	9	0	5
TAP	9	192	4
TAP	9	192	5
HLD	10	0	6	192
HLD	10	192	7	192
TAP	11	0	6
TAP	11	192	6
TAP	11	192	7
HLD	12	0	1	192
HLD	12	192	0	192
TAP	13	0	1
TAP	13	192	0
TAP	13	192	1
TAP	14	0	2
TAP	14	96	2
TAP	14	192	3
TAP	15	0	5
TAP	15	96	5
TAP	15	192	4
HLD	16	0	3	384
HLD	16	0	4	384
TAP	17	192	3
TAP	17	192	4
TAP	17	288	2
TAP	17	288	5
BST	18	0	1
SI_	18	0	1	96	192	4
TAP	19	0	5
TAP	19	96	5
TAP	19	192	6
TAP	19	288	6
STR	20	0	6
SI_	20	0	6	96	192	3
TAP	21	0	1
TAP	21	96	1
TAP	21	192	2
TAP	21	288	2
XST	22	0	3
SCL	22	0	3	96	192	0
XST	23	0	7
SCL	23	0	7	96	192	4
THO	24	0	0	384	C	0	L1
HLD	26	0	2	384
HLD	26	0	3	384
TAP	27	192	4
HLD	28	0	4	384
HLD	28	0	5	384
TAP	29	192	6
HLD	30	0	6	192
HLD	30	0	7	192
HLD	31	0	0	192
HLD	31	0	1	192
HLD	32	0	0	192
HLD	32	0	7	192
TAP	33	0	0
TAP	33	0	7
TAP	33	192	1
TAP	33	192	6
HLD	34	0	6	192
HLD	34	192	5	192
TAP	35	0	4
TAP	35	192	3
TAP	35	192	4
HLD	36	0	3	192
HLD	36	192	2	192
TAP	37	0	1
TAP	37	192	0
TAP	37	192	1
HLD	38	0	2	192
HLD	38	192	3	192
HLD	39	0	4	192
HLD	39	192	5	192
BST	40	0	6
SCL	40	0	6	96	288	1
TAP	41	192	0
TAP	41	192	7
TTP	42	0	0	E	0	L1
TTP	42	192	0	B	0	L1
TTP	42	192	7	B	0	L1
TTP	43	0	1	B	0	L1
TTP	43	0	6	B	0	L1
TTP	44	0	3	B	0	L1
TTP	44	0	4	B	0	L1
TTP	44	192	2	B	0	L1
TTP	44	192	5	B	0	L1
TTP	45	0	1	B	0	L1
TTP	45	0	6	B	0	L1
TTP	46	0	1	E	0	L1
TTP	46	192	0	C	0	L1
TTP	47	0	5	E	0	L1
TTP	47	192	6	E	0	L1
TTP	48	0	7	E	0	L1
TTP	48	192	0	C	0	L1
TTP	49	0	3	E	0	L1
TTP	49	0	5	E	0	L1
STR	50	0	6
SI_	50	0	6	96	288	3
TAP	51	192	2
TAP	51	288	2
STR	52	0	1
SI_	52	0	1	96	288	5
TAP	53	192	6
TAP	53	288	6
HLD	54	0	7	576
HLD	55	0	0	192
STR	56	0	0
SI_	56	0	0	96	288	4
STR	56	0	7
SI_	56	0	7	96	288	3
XTP	57	192	2
XTP	57	192	5
TAP	58	0	5
TAP	58	96	4
TAP	58	96	6
TAP	58	192	5
TAP	58	288	3
TAP	58	288	4
HLD	59	0	2	96
TAP	59	96	3
TAP	59	192	1
TAP	59	192	4
TAP	60	0	2
TAP	60	96	1
TAP	60	96	3
TAP	60	192	2
TAP	60	288	3
TAP	60	288	4
TAP	61	0	5
TAP	61	96	6
XTP	61	192	0
XTP	61	192	6
XTP	61	288	0
XTP	61	288	6
XST	62	0	7
SCL	62	0	7	96	192	4
STR	63	0	3
SCL	63	0	3	96	192	0
TAP	64	0	7
TAP	64	96	6
TAP	64	192	0
TAP	64	288	1
HLD	65	0	0	96
HLD	65	0	7	96
XTP	65	192	1
XTP	65	192	6
TAP	66	0	1
TAP	66	0	3
TAP	66	96	2
TAP	66	192	3
TAP	66	192	4
TAP	66	288	2
TAP	67	0	0
TAP	67	0	1
TAP	67	96	0
TAP	67	96	1
XTP	67	192	2
XTP	67	192	7
TAP	68	0	4
TAP	68	0	6
TAP	68	96	5
TAP	68	192	3
TAP	68	192	4
TAP	68	288	5
XTP	69	0	6
XTP	69	96	0
XTP	69	192	2
XTP	69	288	4
HLD	70	0	2	768
HLD	70	0	5	384
THO	72	0	0	384	C	1	L1
HLD	74	0	1	192
TAP	74	96	0
TAP	74	192	0
HLD	75	0	6	192
TAP	75	96	7
TAP	75	192	7
STR	76	0	5
SI_	76	0	5	96	192	0
STR	77	0	1
SI_	77	0	1	96	192	4
HLD	78	0	5	96
TAP	78	96	4
HLD	78	192	2	96
TAP	78	288	3
HLD	79	0	6	96
TAP	79	96	5
HLD	79	192	1	96
TAP	79	288	2
TAP	80	0	7
TAP	80	96	6
TAP	80	192	5
TAP	80	288	4
HLD	81	0	3	96
HLD	81	0	4	96
XTP	81	192	2
XTP	81	192	5
HLD	82	0	5	192
TAP	82	96	4
TAP	82	192	4
HLD	83	0	2	192
TAP	83	96	3
TAP	83	192	3
STR	84	0	1
SCR	84	0	1	96	192	4
STR	85	0	5
SCR	85	0	5	96	192	0
XTP	86	0	1
TAP	86	96	1
TAP	86	192	2
TAP	86	288	3
TAP	87	0	4
TAP	87	0	5
TAP	87	96	4
TAP	87	96	5
TAP	87	192	6
TAP	87	288	0
TAP	87	288	7
STR	88	0	1
SLR	88	0	1	96	480	7
STR	88	0	6
SLL	88	0	6	96	480	0
TAP	90	0	1
TAP	90	0	6

T_REC_TAP	115
T_REC_BRK	0
T_REC_XTP	17
T_REC_HLD	45
T_REC_XHO	1
T_REC_STR	12
T_REC_BST	2
T_REC_XST	3
T_REC_TTP	19
T_REC_THO	2
T_REC_SLD	17
T_REC_ALL	233
T_NUM_TAP	166
T_NUM_BRK	2
T_NUM_HLD	48
T_NUM_SLD	17
T_NUM_ALL	233
T_JUDGE_TAP	168
T_JUDGE_HLD	250
T_JUDGE_SLD	17
T_JUDGE_ALL	435
TTM_EACHPAIRS	43
TTM_SCR_TAP	83000
TTM_SCR_BRK	5200
TTM_SCR_HLD	48000
TTM_SCR_SLD	25500
TTM_SCR_ALL	161700
TTM_SCR_S	156700
TTM_SCR_SS	161500
TTM_RAT_ACV	10012

