VERSION	0.00.00	1.03.00
FES_MODE	0
BPM_DEF	165.000	165.000	165.000	165.000
MET_DEF	4	4
RESOLUTION	384
CLK_DEF	384
COMPATIBLE_CODE	MA2

BPM	0	0	165.000
MET	0	0	4	4

HLD	2	0	3	384
HLD	4	0	4	384
TAP	6	0	3
TAP	7	0	3
TAP	8	0	4
BRK	9	0	4
TAP	10	0	3
TAP	10	192	3
TAP	11	0	3
TAP	11	0	4
TAP	12	0	4
TAP	12	192	4
TAP	13	0	3
TAP	13	0	4
TAP	14	0	3
TAP	14	192	3
TAP	15	0	4
TAP	15	192	4
XTP	16	0	2
XTP	16	0	5
TTP	18	0	3	B	0	L1
TTP	19	0	4	B	0	L1
TTP	20	0	2	B	0	L1
TTP	21	0	5	B	0	L1
THO	22	0	0	768	C	1	L1
TAP	26	0	7
TAP	27	0	7
TAP	28	0	6
TAP	29	0	6
TAP	30	0	5
TAP	31	0	5
HLD	32	0	4	384
TAP	34	0	3
TAP	34	192	3
TAP	35	0	3
TAP	36	0	2
TAP	36	192	2
TAP	37	0	2
TAP	38	0	1
TAP	38	192	1
TAP	39	0	1
HLD	40	0	0	384
TAP	42	0	0
TAP	42	192	0
TAP	43	0	1
TAP	43	192	1
TAP	44	0	2
TAP	44	192	2
TAP	45	0	3
TAP	45	0	4
TAP	46	0	4
TAP	46	192	4
TAP	47	0	5
TAP	47	192	5
TAP	48	0	6
TAP	48	192	6
TAP	49	0	7
TAP	49	192	7
STR	50	0	0
SI_	50	0	0	96	288	4
STR	52	0	7
SI_	52	0	7	96	288	3
TTP	54	0	3	B	0	L1
TTP	54	0	4	B	0	L1
TTP	55	0	2	B	0	L1
TTP	55	0	5	B	0	L1
THO	56	0	0	384	C	1	L1
TAP	58	0	7
TAP	58	192	7
TAP	59	0	7
TAP	59	96	7
TAP	59	192	0
TAP	59	192	7
TAP	60	0	6
TAP	60	192	6
TAP	61	0	6
TAP	61	96	6
TAP	61	192	6
TAP	61	192	7
TAP	62	0	5
TAP	62	192	5
TAP	63	0	4
TAP	63	192	4
TAP	64	0	3
TAP	64	192	3
TAP	65	0	4
TAP	65	96	3
BRK	65	192	4
TAP	66	0	3
TAP	66	192	3
TAP	67	0	3
TAP	67	96	3
TAP	67	192	3
TAP	67	192	4
TAP	68	0	2
TAP	68	192	2
TAP	69	0	2
TAP	69	96	2
TAP	69	192	2
TAP	69	192	3
HLD	70	0	1	384
STR	72	0	0
SI_	72	0	0	96	288	4
TAP	74	0	5
TAP	74	96	5
TAP	74	192	5
TAP	75	0	5
TAP	75	96	5
TAP	75	192	4
TAP	75	192	5
TAP	76	0	4
TAP	76	96	4
TAP	76	192	4
HLD	77	0	3	192
HLD	77	0	4	192
TAP	78	0	2
TAP	78	96	2
TAP	78	192	2
TAP	79	0	2
TAP	79	96	2
TAP	79	192	2
TAP	79	192	3
TAP	80	0	3
TAP	80	96	3
TAP	80	192	3
XTP	81	0	3
XTP	81	0	4
TTP	82	0	4	B	0	L1
TTP	83	0	5	B	0	L1
TTP	84	0	6	B	0	L1
TTP	85	0	0	B	0	L1
TTP	85	0	7	B	0	L1
TTP	86	0	1	B	0	L1
TTP	86	0	6	B	0	L1
TTP	87	0	2	B	0	L1
TTP	87	0	5	B	0	L1
THO	88	0	0	768	C	0	L1

T_REC_TAP	98
T_REC_BRK	2
T_REC_XTP	4
T_REC_HLD	7
T_REC_XHO	0
T_REC_STR	3
T_REC_BST	0
T_REC_XST	0
T_REC_TTP	17
T_REC_THO	3
T_REC_SLD	3
T_REC_ALL	137
T_NUM_TAP	122
T_NUM_BRK	2
T_NUM_HLD	10
T_NUM_SLD	3
T_NUM_ALL	137
T_JUDGE_TAP	124
T_JUDGE_HLD	88
T_JUDGE_SLD	3
T_JUDGE_ALL	215
TTM_EACHPAIRS	12
TTM_SCR_TAP	61000
TTM_SCR_BRK	5200
TTM_SCR_HLD	10000
TTM_SCR_SLD	4500
TTM_SCR_ALL	80700
TTM_SCR_S	78100
TTM_SCR_SS	80500
TTM_RAT_ACV	10024

