VERSION	0.00.00	1.05.00
FES_MODE	0
BPM_DEF	205.000	205.000	205.000	205.000
MET_DEF	4	4
RESOLUTION	384
CLK_DEF	384
COMPATIBLE_CODE	MA2

BPM	0	0	205.000
MET	0	0	4	4

EXHLD	2	0	3	144
NMHLD	2	144	2	144
NMHLD	2	288	1	144
NMTAP	3	48	0
NMSTR	3	96	0
NMSI_	3	96	0	96	96	5
CNSI_	3	288	5	0	96	2
EXHLD	4	0	0	144
NMHLD	4	144	1	144
NMHLD	4	288	2	144
NMTAP	5	48	3
NMSTR	5	96	3
NMSI_	5	96	3	96	96	6
CNSI_	5	288	6	0	96	1
EXHLD	6	0	2	144
NMHLD	6	144	3	144
NMHLD	6	288	4	144
NMTAP	7	48	5
NMSTR	7	96	5
NMSI_	7	96	5	96	96	0
CNSI_	7	288	0	0	96	3
EXHLD	8	0	4	144
NMHLD	8	144	5	144
NMHLD	8	288	6	144
NMTAP	9	48	7
NMTAP	9	96	7
BRTAP	9	192	0
BRTAP	9	192	5
NMTAP	10	0	1
NMTAP	10	0	4
NMHLD	10	48	1	240
NMTAP	10	48	4
NMTAP	10	144	2
NMTAP	10	192	2
NMTAP	10	288	3
NMTAP	10	336	4
NMTAP	11	0	5
NMHLD	11	48	6	240
NMTAP	11	144	5
NMTAP	11	192	5
NMTAP	11	288	4
NMTAP	11	336	3
NMTAP	12	0	2
NMHLD	12	48	1	240
NMTAP	12	144	2
NMTAP	12	192	2
NMTAP	12	288	3
NMTAP	12	336	4
NMTAP	13	0	5
NMHLD	13	48	6	240
NMTAP	13	144	5
NMTAP	13	192	5
NMTAP	13	288	4
NMTAP	14	0	3
NMTAP	14	0	5
NMTAP	14	48	2
NMTAP	14	96	1
NMTAP	14	192	2
NMTAP	14	192	4
NMTAP	14	240	5
NMTAP	14	288	6
NMTAP	15	0	3
NMTAP	15	0	5
NMTAP	15	48	2
NMTAP	15	96	1
NMTAP	15	192	2
NMTAP	15	192	4
NMTAP	15	240	5
NMTAP	15	288	6
NMSTR	16	0	6
NMSI_	16	0	6	96	48	2
NMTAP	16	48	6
NMSTR	16	96	7
NMSI_	16	96	7	96	48	3
NMTAP	16	144	7
NMSTR	16	192	0
NMSI_	16	192	0	96	48	4
NMTAP	16	240	0
NMTAP	16	288	1
NMTAP	17	0	2
NMTAP	17	32	2
NMTAP	17	64	2
NMTAP	17	96	3
NMTAP	17	128	3
NMTAP	17	160	3
NMTHO	17	192	0	96	C	0	M1
NMSTR	18	0	7
NMSI_	18	0	7	96	48	4
NMTAP	18	48	0
NMSTR	18	96	1
NMSI_	18	96	1	96	48	4
NMSTR	18	192	5
NMSI_	18	192	5	96	48	0
NMTAP	18	288	3
NMTAP	18	336	2
NMHLD	19	0	1	96
NMTAP	19	96	0
NMTAP	19	144	7
NMTAP	19	192	0
NMTAP	19	192	6
NMTAP	19	240	5
NMTAP	19	288	4
NMTAP	19	288	7
NMSTR	20	0	0
NMSI_	20	0	0	96	48	3
NMTAP	20	48	7
NMSTR	20	96	6
NMSI_	20	96	6	96	48	3
NMSTR	20	192	2
NMSI_	20	192	2	96	48	7
NMTAP	20	288	4
NMTAP	20	336	5
NMHLD	21	0	6	96
NMTAP	21	96	7
NMTAP	21	144	0
NMTAP	21	192	1
NMTAP	21	192	7
NMTAP	21	240	2
NMTAP	21	288	0
NMTAP	21	288	3
NMSTR	22	0	7
NMSI_	22	0	7	96	48	4
NMTAP	22	48	0
NMSTR	22	96	1
NMSI_	22	96	1	96	48	4
NMSTR	22	192	5
NMSI_	22	192	5	96	48	0
NMTAP	22	288	3
NMTAP	22	336	2
NMHLD	23	0	1	96
NMTAP	23	96	0
NMTAP	23	144	7
NMTAP	23	192	0
NMTAP	23	192	6
NMTAP	23	240	5
NMTAP	23	288	4
NMTAP	23	288	7
NMSTR	24	0	0
NMSI_	24	0	0	96	48	3
NMTAP	24	48	7
NMSTR	24	96	6
NMSI_	24	96	6	96	48	3
NMSTR	24	192	2
NMSI_	24	192	2	96	48	7
NMTAP	24	288	4
NMTAP	24	336	5
NMTAP	25	0	6
NMTAP	25	48	6
NMTAP	25	144	0
NMTAP	25	144	7
NMTAP	25	192	6
NMTAP	25	216	7
NMTAP	25	240	6
NMSTR	25	288	5
NMSI_	25	288	5	96	48	2
NMTAP	25	336	4
BRTAP	26	0	3
NMTAP	26	96	0
NMTAP	26	128	0
NMTAP	26	160	0
NMSTR	26	192	6
NMSI_	26	192	6	96	48	3
NMTAP	26	240	7
NMTAP	26	288	0
NMTAP	26	336	1
NMHLD	27	0	2	96
NMTAP	27	96	1
NMTAP	27	144	0
NMTAP	27	192	1
NMTAP	27	192	7
NMTAP	27	240	6
NMTAP	27	288	5
NMTAP	27	288	7
NMSTR	28	0	3
NMSI_	28	0	3	96	48	0
NMTAP	28	48	4
NMSTR	28	96	5
NMSI_	28	96	5	96	48	0
NMSTR	28	192	1
NMSI_	28	192	1	96	48	4
NMTAP	28	288	7
NMTAP	28	336	6
NMHLD	29	0	5	96
NMTAP	29	96	4
NMTAP	29	144	3
NMTAP	29	192	2
NMTAP	29	192	4
NMTAP	29	240	1
NMSTR	29	288	0
NMSI_	29	288	0	96	48	3
NMSTR	29	288	3
NMSI_	29	288	3	96	48	6
NMTAP	30	144	2
NMTAP	30	192	2
NMTAP	30	240	1
NMTAP	30	240	5
NMTAP	30	336	0
NMTAP	30	336	6
NMHLD	31	0	0	96
NMTAP	31	0	6
NMTAP	31	96	1
NMTAP	31	144	2
NMTAP	31	192	1
NMTAP	31	192	3
NMTAP	31	288	4
NMTAP	31	288	6
NMTAP	32	0	3
NMTAP	32	0	7
NMTAP	32	48	2
NMTAP	32	48	6
NMTAP	32	96	1
NMTAP	32	96	5
NMTAP	32	144	0
NMTAP	32	144	4
BRHLD	32	192	3	144
BRHLD	32	192	7	144
NMTAP	33	0	0
NMTAP	33	0	4
NMSTR	33	48	1
NMSI_	33	48	1	96	48	6
NMSTR	33	48	5
NMSI_	33	48	5	96	48	2
NMTAP	33	144	1
NMTAP	33	144	5
CNSI_	33	192	2	0	48	4
CNSI_	33	192	6	0	48	0
NMTAP	34	0	2
NMTAP	34	48	2
NMHLD	34	96	1	96
NMTAP	34	96	3
NMTAP	34	192	0
NMSTR	34	240	0
NMSI_	34	240	0	96	48	3
NMSI_	34	240	0	96	48	5
NMSTR	35	48	4
NMSI_	35	48	4	96	48	1
NMSI_	35	48	4	96	48	7
NMTAP	35	96	4
NMTAP	35	240	0
BRTAP	35	288	1
BRTAP	35	288	7
NMSTR	36	0	2
NMSCL	36	0	2	96	192	5
NMTAP	36	96	4
NMTAP	36	144	4
NMTAP	36	192	3
NMTAP	36	240	3
NMTAP	36	288	2
NMSTR	37	0	7
NMSCL	37	0	7	96	192	2
NMTAP	37	96	1
NMTAP	37	144	1
NMTAP	37	192	0
NMTAP	37	240	0
NMTAP	37	288	7
NMTAP	38	0	5
NMTAP	38	48	5
NMTAP	38	96	4
NMHLD	38	96	6	96
NMTAP	38	192	7
NMSTR	38	240	7
NMSI_	38	240	7	96	48	2
NMSI_	38	240	7	96	48	4
NMSTR	39	48	3
NMSI_	39	48	3	96	48	0
NMSI_	39	48	3	96	48	6
NMTAP	39	96	3
NMTAP	39	240	7
NMTAP	39	288	0
NMTAP	39	288	6
NMTAP	39	336	1
NMTAP	39	336	5
NMSTR	40	0	2
NMSCL	40	0	2	96	192	5
NMTAP	40	96	4
NMTAP	40	144	4
NMTAP	40	192	3
NMTAP	40	240	3
NMTAP	40	288	2
NMTAP	41	0	3
NMTAP	41	24	4
NMTAP	41	48	5
NMTAP	41	72	6
NMTAP	41	96	3
NMTAP	41	96	7
NMTAP	41	120	2
NMTAP	41	144	1
NMTAP	41	168	0
NMTAP	41	192	3
NMTAP	41	192	7
NMTHO	42	0	0	2880	C	1	M1
BXHLD	42	0	1	576
NMSTR	44	0	2
NMSLL	44	0	2	96	480	6
NMHLD	46	0	7	576
NMSTR	48	0	0
NMSI_	48	0	0	96	288	3
BRTAP	49	192	0
NMTAP	50	0	2
NMHLD	50	48	2	144
NMTTP	50	144	3	B	0	M1
NMTTP	50	192	1	B	0	M1
NMTAP	50	336	6
NMTAP	51	0	5
NMHLD	51	48	5	144
NMTTP	51	144	4	B	0	M1
NMTTP	51	192	6	B	0	M1
NMTAP	51	336	1
NMTAP	52	0	2
NMHLD	52	48	2	144
NMTTP	52	144	3	B	0	M1
NMTTP	52	192	1	B	0	M1
NMTAP	52	336	6
NMTAP	53	0	5
NMHLD	53	48	5	144
NMTTP	53	144	4	B	0	M1
NMTTP	53	192	6	B	0	M1
NMTAP	53	288	0
NMTAP	53	288	7
NMTAP	54	0	1
NMHLD	54	48	1	144
NMTTP	54	144	0	B	0	M1
NMTTP	54	192	2	B	0	M1
NMTAP	54	336	5
NMTAP	55	0	6
NMHLD	55	48	6	144
NMTTP	55	144	7	B	0	M1
NMTTP	55	192	5	B	0	M1
NMTAP	55	336	2
NMTAP	56	0	1
NMHLD	56	48	1	144
NMTTP	56	144	0	B	0	M1
NMTTP	56	192	2	B	0	M1
NMTAP	56	336	5
NMTAP	57	0	6
NMHLD	57	48	6	144
NMTAP	57	144	0
BRTAP	57	192	1
NMTAP	58	0	5
NMSTR	58	48	5
NMSI_	58	48	5	96	48	3
NMTAP	58	144	2
NMTAP	58	192	2
NMSTR	58	240	1
NMSI_	58	240	1	96	48	3
NMTAP	58	336	4
NMTAP	59	0	4
NMTAP	59	48	5
NMHLD	59	96	5	96
NMHLD	59	192	4	96
NMHLD	59	288	3	96
NMTAP	60	0	2
NMSTR	60	48	2
NMSI_	60	48	2	96	48	4
NMTAP	60	144	5
NMTAP	60	192	5
NMSTR	60	240	6
NMSI_	60	240	6	96	48	4
NMTAP	60	336	3
NMTAP	61	0	3
NMTAP	61	48	2
NMHLD	61	96	2	96
NMTAP	61	192	3
NMTAP	61	288	3
NMTAP	61	288	4
NMTAP	62	0	5
NMSTR	62	48	5
NMSI_	62	48	5	96	48	3
NMSTR	62	144	1
NMSI_	62	144	1	96	48	3
NMSTR	62	240	6
NMSI_	62	240	6	96	48	4
NMSTR	62	336	2
NMSI_	62	336	2	96	48	4
NMSTR	63	48	7
NMSI_	63	48	7	96	48	4
NMTAP	63	144	2
NMTAP	63	192	2
NMTAP	63	288	1
NMTAP	63	288	3
NMTAP	64	0	4
NMTAP	64	24	2
NMTAP	64	48	4
NMTAP	64	72	2
NMTAP	64	96	4
NMTAP	64	120	2
NMTAP	64	144	4
NMTAP	64	168	2
NMTAP	64	192	5
NMTAP	64	216	1
NMTAP	64	240	5
NMTAP	64	264	1
NMTAP	64	288	5
NMTAP	64	312	1
NMTAP	64	336	5
NMTAP	64	360	1
NMTAP	65	0	6
NMTAP	65	24	0
NMTAP	65	48	6
NMTAP	65	72	0
NMTAP	65	96	6
NMTAP	65	120	0
NMTAP	65	144	6
NMTAP	65	168	0
BRTAP	65	192	5
EXTAP	65	224	4
EXTAP	65	256	3
EXTAP	65	288	2
EXTAP	65	320	1
EXTAP	65	352	0
EXSTR	66	0	7
NMSI_	66	0	7	96	48	3
NMTAP	66	96	1
NMTAP	66	96	7
NMSTR	66	144	2
NMSLL	66	144	2	96	96	4
CNSI_	66	144	3	0	48	5
NMTAP	66	240	2
NMTAP	66	240	6
NMTAP	66	288	7
EXSTR	67	0	6
NMSI_	67	0	6	96	48	2
NMTAP	67	96	1
NMTAP	67	96	6
NMTAP	67	144	0
NMTAP	67	240	0
NMTAP	67	240	4
NMTAP	67	288	1
NMTAP	67	288	5
EXSTR	68	0	3
NMSI_	68	0	3	96	48	7
NMTAP	68	96	3
NMTAP	68	96	7
NMSTR	68	144	6
NMSI_	68	144	6	96	48	2
CNSI_	68	144	7	0	48	1
NMTAP	68	240	2
NMTAP	68	240	6
NMTAP	68	288	3
NMTAP	69	0	4
NMTAP	69	0	7
NMTAP	69	96	0
NMTAP	69	96	1
NMTAP	69	192	0
NMTAP	69	192	7
BRTAP	69	288	6
BRTAP	69	288	7
EXSTR	70	0	0
NMSI_	70	0	0	96	48	4
EXTAP	70	0	1
NMTAP	70	96	0
NMTAP	70	96	6
CNSI_	70	144	4	0	48	2
NMSTR	70	144	5
NMSLR	70	144	5	96	96	3
NMTAP	70	240	1
NMTAP	70	240	5
NMTAP	70	288	0
EXSTR	71	0	1
NMSI_	71	0	1	96	48	5
NMTAP	71	96	1
NMTAP	71	96	6
NMTAP	71	144	7
NMTAP	71	240	3
NMTAP	71	240	7
NMTAP	71	288	2
NMTAP	71	288	6
EXTAP	72	0	0
EXSTR	72	0	4
NMSI_	72	0	4	96	48	0
NMTAP	72	96	1
NMTAP	72	96	4
CNSI_	72	144	0	0	48	6
NMTAP	72	144	2
NMTAP	72	240	4
NMTAP	72	240	5
NMTAP	72	288	4
NMTAP	72	288	5
NMTAP	73	0	3
NMTAP	73	24	2
NMTAP	73	48	1
NMTAP	73	72	4
NMTAP	73	96	5
NMTAP	73	120	6
NMTAP	73	144	3
NMTAP	73	168	2
NMTAP	73	192	1
NMTAP	73	216	4
NMTAP	73	240	5
NMTAP	73	264	6
EXSTR	73	288	0
NMSXL	73	288	0	96	192	3
NMSXR	73	288	0	96	192	5
NMTAP	73	300	1
NMTAP	73	312	2
NMTAP	73	324	3
NMTAP	73	336	4
NMTAP	73	348	5
NMTAP	73	360	6
NMTAP	73	372	7
EXTAP	74	0	0
NMTAP	74	288	2
NMTAP	74	288	6
NMTAP	74	336	1
NMTAP	75	0	0
NMTAP	75	0	4
NMSTR	75	48	0
NMSCR	75	48	0	96	48	2
NMSTR	75	48	4
NMSCR	75	48	4	96	48	6
NMTAP	75	144	0
NMTAP	75	144	4
NMTAP	75	288	3
NMTAP	75	288	7
NMSTR	76	0	7
NMSI_	76	0	7	96	48	1
NMSTR	76	48	2
NMSI_	76	48	2	96	48	4
NMTAP	76	96	7
CNSI_	76	144	1	0	48	5
NMTAP	76	144	2
NMTAP	76	240	3
NMTAP	76	288	2
NMTAP	76	336	1
NMTAP	76	336	4
NMTAP	77	0	0
NMSTR	77	48	3
NMSLR	77	48	3	96	96	0
NMSTR	77	48	7
NMSLR	77	48	7	96	96	4
NMTAP	77	144	3
NMTAP	77	144	7
NMTAP	77	288	3
NMTAP	77	288	7
NMTAP	77	312	2
NMTAP	77	312	6
NMTAP	77	336	1
NMTAP	77	336	5
NMTAP	77	360	0
NMTAP	77	360	4
NMTAP	78	0	3
NMSTR	78	0	7
NMSI_	78	0	7	96	48	2
NMSTR	78	96	3
NMSI_	78	96	3	96	48	6
NMTAP	78	144	3
NMSTR	78	192	1
NMSI_	78	192	1	96	48	6
NMTAP	78	240	1
NMSTR	78	288	5
NMSI_	78	288	5	96	48	2
NMTAP	78	336	5
NMTAP	79	0	7
NMTAP	79	48	0
NMSTR	79	96	1
BRSUR	79	96	1	96	96	2
NMTAP	79	96	3
NMTAP	79	192	1
NMTAP	79	192	4
NMTAP	79	216	5
NMTAP	79	240	6
NMTAP	79	264	7
NMTAP	79	288	0
NMTAP	80	0	0
NMSTR	80	0	4
NMSCL	80	0	4	96	48	0
NMTAP	80	96	4
NMTAP	80	96	6
NMSTR	80	192	3
NMSCR	80	192	3	96	48	7
NMTAP	80	192	7
NMTAP	80	288	1
NMTAP	80	288	3
NMTAP	81	0	4
NMTAP	81	96	4
NMTAP	81	96	7
NMTAP	81	144	3
NMTAP	81	144	6
NMTAP	81	192	2
NMTAP	81	192	5
NMTAP	81	240	1
NMTAP	81	240	4
NMSTR	81	288	0
BRSCR	81	288	0	96	768	7
NMTAP	81	288	3
BRTAP	82	0	0
BRTAP	82	0	7
NMTHO	83	96	0	288	C	1	M1
CNSCL	84	0	7	0	672	0
NMTTP	85	96	3	B	0	M1
NMTTP	85	192	0	C	0	M1
NMTTP	85	288	7	B	0	M1
EXHLD	86	0	2	144
NMTAP	86	48	3
NMTAP	86	96	3
NMHLD	86	144	4	144
NMTAP	86	192	3
NMTAP	86	240	3
NMHLD	86	288	2	144
NMTAP	86	336	3
NMTAP	87	0	3
NMHLD	87	48	5	144
NMTAP	87	96	3
NMTAP	87	144	3
NMHLD	87	192	1	144
NMTAP	87	240	3
NMTAP	87	288	3
NMHLD	87	336	6	144
NMTAP	88	0	3
NMTAP	88	48	3
NMHLD	88	96	0	144
NMTAP	88	144	3
NMTAP	88	192	3
NMHLD	88	240	6	96
NMTAP	88	288	7
NMTAP	88	336	7
BRTAP	89	48	6
BRTAP	89	48	7
BRTAP	89	96	2
BRTAP	89	96	3
BRTAP	89	144	0
BRTAP	89	144	1
BRTAP	89	192	4
BRTAP	89	192	5
NMTAP	89	288	2
NMTAP	89	288	6
EXSTR	90	0	3
NMSV_	90	0	3	96	48	6
EXTAP	90	0	4
NMTAP	90	48	2
NMTAP	90	72	3
NMTAP	90	96	2
NMTAP	90	144	0
NMHLD	90	192	5	96
NMTAP	90	192	7
NMTAP	90	288	4
NMTAP	90	336	3
NMTAP	91	0	2
NMSTR	91	0	4
NMSV_	91	0	4	96	48	1
NMTAP	91	48	5
NMTAP	91	72	4
NMTAP	91	96	5
NMTAP	91	144	7
NMTAP	91	192	0
NMHLD	91	192	2	96
NMTAP	91	288	3
NMTAP	91	336	4
NMSTR	92	0	3
NMSV_	92	0	3	96	48	6
NMTAP	92	0	5
NMTAP	92	48	2
NMTAP	92	72	3
NMTAP	92	96	2
NMTAP	92	144	0
NMHLD	92	192	5	96
NMTAP	92	192	7
NMTAP	92	288	4
NMTAP	92	336	3
NMTAP	93	0	2
NMTAP	93	0	4
NMTAP	93	48	5
NMTAP	93	72	4
NMTAP	93	96	5
NMTAP	93	144	3
NMTAP	93	144	4
NMSTR	93	192	3
NMSI_	93	192	3	96	48	1
NMSTR	93	192	4
NMSI_	93	192	4	96	48	6
BRTAP	93	288	3
BRTAP	93	288	4
EXTAP	94	0	0
EXSTR	94	0	7
NMSV_	94	0	7	96	48	2
NMTAP	94	48	6
NMTAP	94	72	7
NMTAP	94	96	6
NMTAP	94	144	4
NMHLD	94	192	1	96
NMTAP	94	192	3
NMTAP	94	288	0
NMTAP	94	336	7
NMSTR	95	0	0
NMSV_	95	0	0	96	48	5
NMTAP	95	0	6
NMTAP	95	48	1
NMTAP	95	72	0
NMTAP	95	96	1
NMTAP	95	144	3
NMTAP	95	192	4
NMHLD	95	192	6	96
NMTAP	95	288	7
NMTAP	95	336	0
NMTAP	96	0	1
NMTAP	96	0	5
NMTAP	96	48	1
NMTAP	96	48	5
NMTAP	96	96	2
NMTAP	96	96	6
NMTAP	96	144	2
NMTAP	96	144	6
NMTAP	96	192	3
NMTAP	96	192	7
NMTAP	96	240	0
NMTAP	96	264	4
NMTAP	96	288	0
NMTAP	96	336	3
NMTAP	96	336	7
NMSTR	97	0	2
NMSI_	97	0	2	96	48	7
NMSTR	97	0	6
NMSI_	97	0	6	96	48	3
NMTAP	97	96	2
NMTAP	97	96	6
NMTAP	97	192	0
NMTAP	97	192	4
NMTAP	97	240	1
NMTAP	97	240	5
BRTAP	97	288	2
BRTAP	97	288	6
NMTAP	98	0	5
NMTAP	98	24	3
NMTAP	98	48	5
NMTAP	98	72	3
BRSTR	98	96	2
NMSLL	98	96	2	96	96	6
BRTAP	98	96	6
NMTAP	98	192	6
NMTAP	98	240	5
NMTAP	98	288	4
EXSTR	98	336	3
NMSCR	98	336	3	96	96	7
NMSTR	99	48	7
NMSCR	99	48	7	96	96	3
NMSTR	99	144	3
NMSCR	99	144	3	96	96	7
NMTAP	99	240	7
NMTAP	99	288	1
NMSTR	99	336	3
NMSI_	99	336	3	96	48	6
NMTAP	100	48	2
NMSTR	100	48	3
NMSI_	100	48	3	96	48	0
NMSTR	100	144	3
NMSI_	100	144	3	96	48	7
NMTAP	100	144	4
NMTAP	100	240	2
NMSTR	100	240	3
NMSCR	100	240	3	96	144	2
NMTAP	100	336	3
NMTAP	100	336	5
NMTAP	101	96	6
BRTAP	101	144	4
BRTAP	101	144	7
NMTAP	101	240	1
NMTAP	101	240	5
NMTAP	101	288	1
NMTAP	101	288	5
NMSTR	102	0	0
NMSI_	102	0	0	96	48	5
NMTAP	102	0	6
NMTAP	102	24	1
NMTAP	102	48	2
NMTAP	102	72	3
NMTAP	102	96	0
NMTAP	102	96	4
NMSTR	102	144	3
NMSI_	102	144	3	96	48	6
NMTAP	102	168	2
NMTAP	102	192	1
NMTAP	102	216	0
NMTAP	102	240	3
NMTAP	102	240	7
NMSTR	102	288	0
NMSI_	102	288	0	96	48	5
NMTAP	102	312	1
NMTAP	102	336	2
NMTAP	102	360	3
NMTAP	103	0	0
NMTAP	103	0	4
NMSTR	103	48	3
NMSI_	103	48	3	96	48	6
NMTAP	103	72	2
NMTAP	103	96	1
NMTAP	103	120	0
NMTAP	103	144	3
NMTAP	103	144	7
NMSTR	103	192	0
NMSI_	103	192	0	96	48	5
NMTAP	103	216	1
NMTAP	103	240	2
NMTAP	103	264	3
NMTAP	103	288	0
NMTAP	103	288	4
NMTAP	104	0	3
NMTAP	104	24	4
NMTAP	104	48	3
NMTAP	104	72	4
NMTAP	104	96	2
NMTAP	104	120	5
NMTAP	104	144	2
NMTAP	104	168	5
NMTAP	104	192	1
NMTAP	104	204	2
NMTAP	104	216	3
NMTAP	104	228	4
NMTAP	104	240	5
NMTAP	104	252	6
NMTAP	104	264	7
NMTAP	104	276	0
NMTAP	104	288	1
NMTAP	104	300	2
NMTAP	104	312	3
NMTAP	104	324	4
NMTAP	104	336	5
NMTAP	104	348	6
NMTAP	104	360	7
NMTAP	104	372	0
NMTAP	105	0	1
NMTAP	105	12	2
NMTAP	105	24	3
NMTAP	105	36	4
BRTAP	105	48	5
BRTAP	105	144	3
BRTAP	105	144	7
BRTAP	105	240	1
BRTAP	105	240	5
BRSTR	105	288	7
NMSI_	105	288	7	96	1056	2
NMSI_	105	288	7	96	1056	4
NMTAP	106	0	7
NMHLD	109	0	0	288
NMSTR	109	0	6
BRSI_	109	0	6	96	48	2
CNSCL	109	144	2	0	144	3

T_REC_TAP	516
T_REC_BRK	32
T_REC_XTP	10
T_REC_BXX	0
T_REC_HLD	46
T_REC_XHO	5
T_REC_BHO	2
T_REC_BXH	1
T_REC_STR	81
T_REC_BST	2
T_REC_XST	10
T_REC_XBS	0
T_REC_TTP	17
T_REC_THO	3
T_REC_SLD	96
T_REC_BSL	3
T_REC_ALL	824
T_NUM_TAP	634
T_NUM_BRK	40
T_NUM_HLD	54
T_NUM_SLD	96
T_NUM_ALL	824
T_JUDGE_TAP	668
T_JUDGE_HLD	241
T_JUDGE_SLD	99
T_JUDGE_ALL	1008
TTM_EACHPAIRS	134
TTM_SCR_TAP	317000
TTM_SCR_BRK	104000
TTM_SCR_HLD	54000
TTM_SCR_SLD	144000
TTM_SCR_ALL	619000
TTM_SCR_S	596550
TTM_SCR_SS	615000
TTM_RAT_ACV	10065

