VERSION	0.00.00	1.03.00
FES_MODE	0
BPM_DEF	205.000	205.000	205.000	205.000
MET_DEF	4	4
RESOLUTION	384
CLK_DEF	384
COMPATIBLE_CODE	MA2

BPM	0	0	205.000
MET	0	0	4	4

THO	1	0	0	384	C	1	M1
TTP	3	96	6	B	0	M1
TTP	3	96	7	E	0	M1
TTP	3	192	1	B	0	M1
TTP	3	240	0	C	0	M1
TTP	3	288	3	E	0	M1
TTP	3	336	4	E	0	M1
TTP	5	48	2	E	0	M1
TTP	5	96	3	E	0	M1
TTP	5	192	6	B	0	M1
TTP	5	240	0	C	0	M1
TTP	5	288	5	E	0	M1
TTP	5	336	4	E	0	M1
TTP	7	96	0	E	0	M1
TTP	7	96	7	E	0	M1
TTP	7	192	1	B	0	M1
TTP	7	240	0	C	0	M1
TTP	7	288	3	E	0	M1
TTP	7	336	4	E	0	M1
TTP	9	0	6	B	0	M1
TTP	9	48	4	B	0	M1
TTP	9	144	1	B	0	M1
TTP	9	192	3	B	0	M1
HLD	10	0	6	192
TAP	10	144	4
HLD	10	192	4	96
TAP	10	288	5
HLD	11	0	3	192
TAP	11	48	4
TAP	11	96	4
HLD	11	192	5	96
TAP	11	288	4
HLD	12	0	1	192
TAP	12	144	3
HLD	12	192	3	96
TAP	12	288	2
HLD	13	0	4	192
TAP	13	48	3
TAP	13	96	3
HLD	13	192	2	96
TAP	13	288	3
TAP	14	0	2
TAP	14	96	1
TAP	14	96	3
TAP	14	192	5
TAP	14	288	4
TAP	14	288	6
TAP	15	0	2
TAP	15	96	0
TAP	15	96	3
TAP	15	192	5
TAP	15	288	4
TAP	15	288	7
TAP	16	0	1
TAP	16	48	1
TAP	16	96	3
TAP	16	144	3
TAP	16	192	4
TAP	16	240	4
TAP	16	288	6
TAP	16	336	6
XTP	17	0	2
XTP	17	32	3
XTP	17	64	1
XTP	17	96	5
XTP	17	128	4
XTP	17	160	6
TTP	17	192	0	C	1	M1
TAP	18	0	0
STR	18	0	7
SI_	18	0	7	96	48	5
TAP	18	96	1
TAP	18	144	1
STR	18	192	7
SI_	18	192	7	96	48	4
TAP	18	240	0
TAP	18	288	1
TAP	19	0	2
STR	19	0	7
SI_	19	0	7	96	48	5
TAP	19	96	1
TAP	19	144	1
STR	19	192	7
SI_	19	192	7	96	48	4
TAP	19	240	2
TAP	19	288	1
TAP	20	0	2
STR	20	0	7
SI_	20	0	7	96	48	5
TAP	20	96	3
TAP	20	192	1
TAP	20	192	7
TAP	20	288	4
TAP	20	288	5
TAP	21	0	0
TAP	21	48	1
TAP	21	96	2
TAP	21	96	3
TAP	21	144	4
TAP	21	192	5
TAP	21	240	6
TAP	21	288	1
TAP	21	288	7
STR	22	0	0
SI_	22	0	0	96	48	2
TAP	22	0	7
TAP	22	96	6
TAP	22	144	6
STR	22	192	0
SI_	22	192	0	96	48	3
TAP	22	240	7
TAP	22	288	6
STR	23	0	0
SI_	23	0	0	96	48	2
TAP	23	0	5
TAP	23	96	6
TAP	23	144	6
STR	23	192	0
SI_	23	192	0	96	48	3
TAP	23	240	5
TAP	23	288	6
STR	24	0	0
SI_	24	0	0	96	48	2
TAP	24	0	5
TAP	24	96	4
TAP	24	192	0
TAP	24	192	6
TAP	24	288	2
TAP	24	288	3
TAP	25	0	7
TAP	25	48	6
TAP	25	96	3
TAP	25	96	5
TAP	25	144	2
TAP	25	192	1
TAP	25	192	4
STR	25	288	0
SF_	25	288	0	96	96	4
BRK	26	192	2
BRK	26	192	6
TAP	26	288	3
TAP	27	0	2
STR	27	0	4
SI_	27	0	4	96	48	6
TAP	27	96	1
TAP	27	144	1
STR	27	192	4
SI_	27	192	4	96	48	7
TAP	27	240	2
TAP	27	288	1
TAP	28	0	0
STR	28	0	4
SI_	28	0	4	96	48	6
TAP	28	96	1
TAP	28	192	2
TAP	28	192	4
TAP	28	288	0
TAP	28	288	1
TAP	29	0	2
TAP	29	48	3
TAP	29	96	4
TAP	29	96	5
TAP	29	144	6
TAP	29	192	0
TAP	29	192	7
TAP	29	240	1
STR	29	288	2
SUL	29	288	2	96	96	5
BRK	30	0	4
STR	30	192	2
SI_	30	192	2	96	48	7
TAP	30	192	3
TAP	30	288	4
STR	31	0	2
SI_	31	0	2	96	48	0
TAP	31	0	3
TAP	31	96	5
TAP	31	144	5
STR	31	192	2
SI_	31	192	2	96	48	7
TAP	31	240	4
TAP	31	288	5
TAP	32	0	2
TAP	32	0	4
TAP	32	96	0
TAP	32	96	6
XTP	32	192	7
XTP	32	216	7
XTP	32	240	7
XTP	32	264	7
BRK	32	288	7
TAP	33	0	1
TAP	33	0	6
TAP	33	96	3
TAP	33	96	4
TAP	33	144	2
TAP	33	144	5
BRK	33	192	1
BRK	33	192	6
STR	34	0	2
SCR	34	0	2	96	48	5
TAP	34	0	4
TAP	34	96	2
HLD	34	192	6	48
TAP	34	240	4
TAP	34	336	3
TAP	34	336	4
TAP	35	48	2
HLD	35	96	2	96
TAP	35	192	0
TAP	35	288	1
STR	35	288	7
SCL	35	288	7	96	96	3
STR	36	0	3
SCL	36	0	3	96	96	7
STR	36	96	7
SI_	36	96	7	96	96	3
STR	36	192	3
SCR	36	192	3	96	96	7
STR	36	288	7
SCR	36	288	7	96	144	4
HLD	37	0	2	288
BRK	37	288	7
TAP	38	0	3
STR	38	0	5
SCL	38	0	5	96	48	2
TAP	38	96	5
HLD	38	192	1	48
TAP	38	240	3
TAP	38	336	3
TAP	38	336	4
TAP	39	48	5
HLD	39	96	5	96
TAP	39	192	7
STR	39	288	0
SCR	39	288	0	96	96	4
TAP	39	288	6
STR	40	0	4
SCR	40	0	4	96	96	0
STR	40	96	0
SI_	40	96	0	96	96	4
STR	40	192	4
SCL	40	192	4	96	96	0
STR	40	288	0
SUR	40	288	0	96	288	7
THO	41	0	0	384	C	1	M1
HLD	42	0	0	960
TTP	43	96	0	B	0	M1
TTP	43	96	1	E	0	M1
TTP	43	192	1	B	0	M1
TTP	43	240	0	C	0	M1
TTP	43	288	3	E	0	M1
TTP	43	336	4	E	0	M1
HLD	44	192	7	768
TTP	45	48	7	B	0	M1
TTP	45	96	7	E	0	M1
TTP	45	192	6	B	0	M1
TTP	45	240	0	C	0	M1
TTP	45	288	5	E	0	M1
TTP	45	336	4	E	0	M1
HLD	46	192	0	768
TTP	47	96	0	B	0	M1
TTP	47	96	1	E	0	M1
TTP	47	192	1	B	0	M1
TTP	47	240	0	C	0	M1
TTP	47	288	3	E	0	M1
TTP	47	336	4	E	0	M1
TAP	48	192	7
TTP	49	0	6	B	0	M1
TTP	49	48	4	B	0	M1
TTP	49	144	1	B	0	M1
TTP	49	192	3	B	0	M1
TAP	50	0	0
HLD	50	0	7	192
HLD	50	192	5	192
TTP	50	288	6	B	0	M1
HLD	51	0	3	192
TTP	51	96	4	B	0	M1
HLD	51	192	1	192
TTP	51	288	2	B	0	M1
HLD	52	0	0	192
TTP	52	96	7	B	0	M1
HLD	52	192	2	192
TTP	52	288	1	B	0	M1
HLD	53	0	4	192
TTP	53	96	3	B	0	M1
HLD	53	192	6	192
TTP	53	288	5	B	0	M1
STR	54	0	7
SCR	54	0	7	96	192	4
TTP	54	192	0	C	0	M1
STR	55	0	0
SCL	55	0	0	96	192	3
TTP	55	192	0	C	0	M1
STR	56	0	0
SCR	56	0	0	96	384	7
STR	56	0	7
SCL	56	0	7	96	384	0
TTP	57	192	0	B	0	M1
TTP	57	192	7	B	0	M1
TAP	58	0	3
HLD	58	48	5	96
TAP	58	144	4
TAP	58	192	4
HLD	58	240	6	96
TAP	58	336	5
TAP	59	0	5
HLD	59	48	7	96
TAP	59	144	4
HLD	59	192	4	96
BRK	59	288	0
TAP	60	0	7
HLD	60	48	1	96
TAP	60	144	0
TAP	60	192	0
HLD	60	240	2	96
TAP	60	336	1
TAP	61	0	1
HLD	61	48	3	96
TAP	61	144	0
HLD	61	192	0	96
BRK	61	288	4
TAP	62	0	2
TAP	62	48	3
TAP	62	96	1
TAP	62	144	1
TAP	62	192	5
TAP	62	240	4
TAP	62	288	6
TAP	62	336	6
TAP	63	0	2
TAP	63	48	3
TAP	63	96	0
TAP	63	144	0
TAP	63	192	5
TAP	63	240	4
TAP	63	288	7
TAP	63	336	7
TAP	64	0	1
TAP	64	48	4
TAP	64	96	3
TAP	64	144	6
TAP	64	192	0
TAP	64	216	7
TAP	64	240	0
TAP	64	264	7
TAP	64	288	0
TAP	64	312	7
TAP	64	336	0
TAP	64	360	7
XTP	65	0	0
XTP	65	16	1
XTP	65	32	2
XTP	65	48	3
XTP	65	64	4
XTP	65	80	5
XTP	65	96	6
XTP	65	112	7
XTP	65	128	0
XTP	65	144	1
XTP	65	160	2
XTP	65	176	3
TTP	65	192	0	C	1	M1
XTP	65	192	4
TAP	66	0	1
STR	66	0	7
SCR	66	0	7	96	48	3
TAP	66	96	6
TAP	66	144	6
TAP	66	240	2
TAP	66	288	1
TAP	66	288	3
STR	67	0	0
SCL	67	0	0	96	48	4
TAP	67	0	6
TAP	67	96	1
TAP	67	144	1
TAP	67	240	5
TAP	67	288	4
TAP	67	288	6
TAP	68	0	3
STR	68	0	5
SCL	68	0	5	96	48	1
TAP	68	96	7
TAP	68	144	7
TAP	68	240	2
TAP	68	288	1
TAP	68	288	3
STR	69	0	2
SCR	69	0	2	96	48	5
TAP	69	0	4
TAP	69	96	0
TAP	69	144	0
TAP	69	240	0
TAP	69	240	7
BRK	69	288	1
BRK	69	288	6
STR	70	0	2
SCR	70	0	2	96	48	6
TAP	70	0	7
TAP	70	96	1
TAP	70	144	1
TAP	70	240	5
TAP	70	288	4
TAP	70	288	6
TAP	71	0	1
STR	71	0	7
SCR	71	0	7	96	48	3
TAP	71	96	6
TAP	71	144	6
TAP	71	240	2
TAP	71	288	1
TAP	71	288	3
STR	72	0	0
SCL	72	0	0	96	48	4
TAP	72	0	6
TAP	72	96	2
TAP	72	144	2
TAP	72	240	5
STR	72	288	4
SXR	72	288	4	96	216	1
STR	72	288	6
SXL	72	288	6	96	216	1
BRK	73	288	2
BRK	73	288	6
HLD	74	0	7	192
TAP	74	96	3
TAP	74	192	1
TAP	74	288	0
TAP	74	288	6
TAP	74	336	0
TAP	74	336	6
TAP	75	0	2
STR	75	48	3
SCR	75	48	3	96	48	6
TAP	75	96	1
HLD	75	144	1	96
TAP	75	240	0
TAP	75	288	0
TAP	76	0	2
TAP	76	0	7
TAP	76	96	4
TAP	76	96	5
TAP	76	144	4
STR	76	144	5
SUR	76	144	5	96	48	2
TAP	76	240	0
TAP	76	288	0
TAP	77	0	1
TAP	77	0	7
STR	77	48	1
SI_	77	48	1	96	48	4
STR	77	48	7
SI_	77	48	7	96	48	3
TAP	77	144	1
TAP	77	144	7
BRK	77	240	2
BRK	77	240	6
TAP	78	0	1
TAP	78	48	0
TAP	78	96	3
TAP	78	144	3
TAP	78	192	6
TAP	78	240	7
TAP	78	288	4
TAP	78	336	4
TAP	79	0	1
TAP	79	48	0
TAP	79	96	3
TAP	79	144	4
TAP	79	192	6
TAP	79	240	7
TAP	79	288	4
TAP	79	336	3
STR	80	0	1
SCL	80	0	1	96	48	6
TAP	80	48	1
TAP	80	96	4
STR	80	192	5
SI_	80	192	5	96	48	1
TAP	80	240	5
TAP	80	288	3
STR	81	0	2
SI_	81	0	2	96	48	6
TAP	81	48	2
TAP	81	96	4
STR	81	192	5
SCL	81	192	5	96	48	2
TAP	81	240	5
TAP	81	288	0
THO	82	0	0	1344	C	0	M1
TTP	86	0	1	B	0	M1
TTP	86	48	5	E	0	M1
TTP	86	96	0	B	0	M1
TTP	86	144	7	E	0	M1
TTP	86	192	2	B	0	M1
TTP	86	240	7	B	0	M1
TTP	86	288	3	B	0	M1
TTP	86	336	6	B	0	M1
TTP	87	0	1	E	0	M1
TTP	87	48	5	B	0	M1
TTP	87	96	2	E	0	M1
TTP	87	144	6	E	0	M1
TTP	87	192	3	E	0	M1
TTP	87	240	4	B	0	M1
TTP	87	288	1	B	0	M1
TTP	87	336	5	E	0	M1
TTP	88	0	2	B	0	M1
TTP	88	0	3	B	0	M1
TTP	88	48	6	B	0	M1
TTP	88	48	6	E	0	M1
TTP	88	96	0	B	0	M1
TTP	88	96	1	E	0	M1
TTP	88	144	7	B	0	M1
TTP	88	144	7	E	0	M1
TTP	88	192	1	B	0	M1
TTP	88	192	2	E	0	M1
TTP	88	240	4	B	0	M1
TTP	88	240	5	B	0	M1
TTP	88	288	2	B	0	M1
TTP	88	288	3	B	0	M1
TTP	88	336	6	B	0	M1
TTP	88	336	6	E	0	M1
BRK	89	48	0
BRK	89	48	7
BRK	89	96	0
BRK	89	96	7
BRK	89	144	1
BRK	89	144	6
BRK	89	192	1
BRK	89	192	6
TTP	89	288	0	C	0	M1
STR	90	0	1
SI_	90	0	1	96	48	4
TAP	90	48	1
STR	90	96	5
SI_	90	96	5	96	48	0
TAP	90	144	5
STR	90	192	1
SCR	90	192	1	96	48	4
TAP	90	240	1
STR	90	288	5
SCR	90	288	5	96	48	0
TAP	90	336	5
STR	91	0	1
SI_	91	0	1	96	48	5
TAP	91	48	1
STR	91	96	7
SI_	91	96	7	96	48	2
SI_	91	96	7	96	48	4
TAP	91	144	7
BRK	91	288	1
BRK	91	288	5
STR	92	0	6
SI_	92	0	6	96	48	3
TAP	92	48	6
STR	92	96	2
SI_	92	96	2	96	48	7
TAP	92	144	2
STR	92	192	6
SCL	92	192	6	96	48	3
TAP	92	240	6
STR	92	288	2
SCL	92	288	2	96	48	7
TAP	92	336	2
STR	93	0	6
SI_	93	0	6	96	48	2
TAP	93	48	6
TAP	93	96	0
TAP	93	144	0
BRK	93	192	0
BRK	93	192	4
BRK	93	288	2
BRK	93	288	6
STR	94	0	1
SI_	94	0	1	96	48	6
TAP	94	48	1
STR	94	96	4
SI_	94	96	4	96	48	1
SI_	94	96	4	96	48	7
TAP	94	144	4
BRK	94	288	2
BRK	94	288	6
STR	95	0	5
SI_	95	0	5	96	48	1
TAP	95	48	5
STR	95	96	3
SI_	95	96	3	96	48	0
SI_	95	96	3	96	48	6
TAP	95	144	3
BRK	95	288	1
BRK	95	288	5
STR	96	0	2
SI_	96	0	2	96	48	5
TAP	96	48	2
STR	96	96	7
SI_	96	96	7	96	48	2
SI_	96	96	7	96	48	4
TAP	96	144	7
BRK	96	288	1
BRK	96	288	5
TAP	97	0	2
TAP	97	0	4
TTP	97	96	0	C	0	M1
TTP	97	96	1	B	0	M1
TTP	97	96	5	B	0	M1
TAP	97	192	0
TAP	97	192	6
XTP	97	288	7
XTP	97	312	7
XTP	97	336	7
XTP	97	360	7
XTP	98	0	7
XTP	98	12	0
XTP	98	12	6
XTP	98	24	1
XTP	98	24	5
XTP	98	36	2
XTP	98	36	4
XTP	98	48	3
BRK	98	96	1
BRK	98	96	5
TAP	98	192	2
TAP	98	192	3
TAP	98	240	1
TAP	98	288	4
TAP	98	288	5
TAP	98	336	6
TAP	99	0	0
TAP	99	0	7
TAP	99	48	1
TAP	99	96	2
TAP	99	96	3
TAP	99	144	4
TAP	99	192	3
TAP	99	192	5
TAP	99	240	6
TAP	99	288	0
TAP	99	288	7
TAP	100	0	6
TAP	100	24	4
TAP	100	48	6
TAP	100	72	4
TAP	100	96	6
TAP	100	144	1
TAP	100	168	3
TAP	100	192	1
TAP	100	216	3
TAP	100	240	1
TAP	100	288	7
TAP	100	336	0
TAP	100	336	6
TAP	101	0	5
TAP	101	48	3
TAP	101	48	4
TAP	101	96	2
TAP	101	144	1
TAP	101	144	3
TAP	101	192	0
TAP	101	240	1
TAP	101	240	7
BRK	101	288	2
BRK	101	288	6
TAP	102	0	1
TAP	102	24	0
TAP	102	48	1
TAP	102	72	0
TAP	102	96	2
TAP	102	144	6
TAP	102	168	7
TAP	102	192	6
TAP	102	216	7
TAP	102	240	5
TAP	102	288	1
TAP	102	312	3
TAP	102	336	1
TAP	102	360	3
TAP	103	0	0
TAP	103	48	6
TAP	103	72	4
TAP	103	96	6
TAP	103	120	4
TAP	103	144	7
TAP	103	192	1
TAP	103	216	0
TAP	103	240	2
TAP	103	288	6
TAP	103	312	7
TAP	103	336	5
XTP	104	0	0
XTP	104	12	1
XTP	104	24	2
XTP	104	36	3
XTP	104	48	4
XTP	104	96	7
XTP	104	108	6
XTP	104	120	5
XTP	104	132	4
XTP	104	144	3
TAP	104	192	0
TAP	104	204	1
TAP	104	216	2
TAP	104	228	3
TAP	104	240	4
TAP	104	252	5
TAP	104	264	6
TAP	104	276	7
TAP	104	288	0
TAP	104	300	1
TAP	104	312	2
TAP	104	324	3
TAP	104	336	4
TAP	104	348	5
TAP	104	360	6
TAP	104	372	7
TAP	105	0	0
TAP	105	12	1
TAP	105	24	2
TAP	105	36	3
BRK	105	48	4
BRK	105	144	0
BRK	105	144	7
BRK	105	240	3
BRK	105	240	4
BRK	105	288	1
BRK	105	288	6
TTP	106	0	0	C	1	M1
TTP	106	0	1	B	0	M1
TTP	106	0	2	B	0	M1
TTP	106	0	5	B	0	M1
TTP	106	0	6	B	0	M1

T_REC_TAP	365
T_REC_BRK	46
T_REC_XTP	45
T_REC_HLD	34
T_REC_XHO	0
T_REC_STR	68
T_REC_BST	0
T_REC_XST	0
T_REC_TTP	98
T_REC_THO	3
T_REC_SLD	72
T_REC_ALL	731
T_NUM_TAP	576
T_NUM_BRK	46
T_NUM_HLD	37
T_NUM_SLD	72
T_NUM_ALL	731
T_JUDGE_TAP	622
T_JUDGE_HLD	186
T_JUDGE_SLD	72
T_JUDGE_ALL	880
TTM_EACHPAIRS	96
TTM_SCR_TAP	288000
TTM_SCR_BRK	119600
TTM_SCR_HLD	37000
TTM_SCR_SLD	108000
TTM_SCR_ALL	552600
TTM_SCR_S	531600
TTM_SCR_SS	548000
TTM_RAT_ACV	10083

