VERSION	0.00.00	1.03.00
FES_MODE	0
BPM_DEF	205.000	205.000	205.000	205.000
MET_DEF	4	4
RESOLUTION	384
CLK_DEF	384
COMPATIBLE_CODE	MA2

BPM	0	0	205.000
MET	0	0	4	4

THO	1	0	0	384	C	1	M1
TTP	3	96	2	E	0	M1
TTP	3	192	3	E	0	M1
TTP	3	288	4	E	0	M1
TTP	5	96	6	E	0	M1
TTP	5	192	5	E	0	M1
TTP	5	288	4	E	0	M1
TTP	7	96	3	E	0	M1
TTP	7	192	5	E	0	M1
TTP	7	288	4	E	0	M1
HLD	8	0	5	192
HLD	8	192	4	192
HLD	9	0	3	192
HLD	9	192	2	192
STR	10	0	3
SI_	10	0	3	96	96	5
TAP	10	96	2
TAP	10	192	1
STR	11	0	4
SI_	11	0	4	96	96	2
TAP	11	96	5
TAP	11	192	6
STR	12	0	3
SI_	12	0	3	96	96	6
TAP	12	96	2
TAP	12	192	1
STR	13	0	4
SI_	13	0	4	96	96	1
TAP	13	96	5
TAP	13	192	6
HLD	14	0	2	96
TAP	14	96	3
HLD	14	192	5	96
TAP	14	288	4
TAP	15	0	2
TAP	15	96	2
TAP	15	96	3
TAP	15	192	5
TAP	15	288	4
TAP	15	288	5
TAP	16	0	2
TAP	16	96	1
TAP	16	96	3
TAP	16	192	5
STR	16	288	4
SUL	16	288	4	96	192	3
TAP	16	288	6
TTP	17	192	0	C	0	M1
TAP	18	0	1
TAP	18	48	1
TAP	18	96	0
TAP	18	192	6
TAP	18	240	6
TAP	18	288	7
TAP	19	0	2
TAP	19	48	2
HLD	19	96	3	192
TAP	19	192	4
TAP	19	288	1
TAP	20	0	6
TAP	20	48	6
TAP	20	96	7
TAP	20	192	1
TAP	20	240	1
TAP	20	288	0
TAP	21	0	5
TAP	21	48	5
HLD	21	96	4	192
TAP	21	192	3
TAP	21	288	6
TAP	22	0	1
TAP	22	48	1
TAP	22	96	3
TAP	22	192	6
TAP	22	240	6
TAP	22	288	4
TAP	23	0	1
TAP	23	48	1
HLD	23	96	7	192
TAP	23	192	5
TAP	23	288	0
TAP	24	0	6
TAP	24	48	6
TAP	24	96	4
TAP	24	192	1
TAP	24	240	1
TAP	24	288	3
TAP	25	0	5
TAP	25	0	7
TAP	25	96	0
TAP	25	96	2
TAP	25	192	3
TAP	25	192	4
STR	25	288	0
SI_	25	288	0	96	96	3
STR	25	288	7
SI_	25	288	7	96	96	4
BRK	26	192	1
BRK	26	192	6
TAP	26	288	2
TAP	26	288	5
TAP	27	0	3
TAP	27	48	3
TAP	27	96	4
TAP	27	192	2
TAP	27	288	1
TAP	27	288	3
TAP	28	0	6
TAP	28	48	6
TAP	28	96	7
TAP	28	192	5
TAP	28	288	4
TAP	28	288	6
TAP	29	0	1
TAP	29	48	1
TAP	29	96	0
TAP	29	192	2
STR	29	288	1
SCL	29	288	1	96	96	6
TAP	29	288	3
TAP	30	192	4
TAP	30	288	2
TAP	30	288	4
TAP	31	0	3
TAP	31	96	3
TAP	31	96	5
TAP	31	192	2
TAP	31	288	1
TAP	31	288	3
TAP	32	0	5
TAP	32	96	4
STR	32	96	6
SCR	32	96	6	96	96	1
TAP	33	0	3
TAP	33	96	3
TAP	33	96	4
BRK	33	192	1
BRK	33	192	6
TAP	34	0	2
TAP	34	0	3
HLD	34	96	2	96
HLD	34	96	3	96
TAP	34	240	2
TAP	34	240	3
TAP	34	336	1
TAP	34	336	4
TAP	35	96	2
TAP	35	192	3
TAP	35	288	1
TAP	35	288	4
TAP	36	0	2
TAP	36	96	2
TAP	36	96	4
TAP	36	192	3
TAP	36	288	1
TAP	36	288	3
TAP	37	0	2
TAP	37	96	3
TAP	37	192	1
TAP	37	192	2
TAP	37	288	0
TAP	37	288	3
HLD	38	96	4	96
HLD	38	96	5	96
TAP	38	240	4
TAP	38	240	5
TAP	38	336	3
TAP	38	336	6
TAP	39	96	4
TAP	39	192	5
TAP	39	288	3
TAP	39	288	6
TAP	40	0	5
TAP	40	96	4
TAP	40	192	5
TAP	40	192	6
TAP	40	288	4
TAP	40	288	7
STR	41	0	6
SI_	41	0	6	96	96	3
STR	41	192	2
SI_	41	192	2	96	96	7
STR	42	0	5
SCR	42	0	5	96	672	2
TTP	45	96	4	E	0	M1
TTP	45	192	0	C	0	M1
TTP	45	288	0	E	0	M1
TTP	47	96	7	E	0	M1
TTP	47	192	0	E	0	M1
TTP	47	288	1	E	0	M1
STR	49	0	3
SUL	49	0	3	96	288	0
HLD	50	0	7	768
TTP	50	192	7	E	0	M1
TTP	51	0	6	E	0	M1
TTP	51	192	5	E	0	M1
HLD	52	0	3	768
TTP	52	192	3	E	0	M1
TTP	53	0	2	E	0	M1
TTP	53	192	1	E	0	M1
HLD	54	0	7	384
TTP	54	192	6	B	0	M1
TTP	54	192	6	E	0	M1
HLD	55	0	1	384
TTP	55	192	2	B	0	M1
TTP	55	192	3	E	0	M1
HLD	56	0	5	384
TTP	56	192	4	B	0	M1
TTP	56	192	4	E	0	M1
STR	57	0	3
SUR	57	0	3	96	192	4
TAP	58	0	5
HLD	58	48	5	144
TAP	58	192	4
HLD	58	240	4	144
TAP	59	0	3
HLD	59	48	3	144
TAP	59	192	2
HLD	59	240	2	144
TAP	60	0	6
HLD	60	48	6	144
TAP	60	192	4
HLD	60	240	4	144
TAP	61	0	3
HLD	61	48	3	144
TAP	61	192	1
HLD	61	240	1	144
TAP	62	0	7
TAP	62	96	0
TAP	62	96	6
TAP	62	192	2
TAP	62	192	7
TAP	62	288	1
TAP	62	288	5
TAP	63	0	3
TAP	63	0	6
TAP	63	96	1
TAP	63	96	4
TAP	63	192	2
TAP	63	192	6
TAP	63	288	0
TAP	63	288	5
TAP	64	0	1
TAP	64	48	1
TAP	64	96	3
TAP	64	144	3
TAP	64	192	4
TAP	64	240	4
TAP	64	288	6
TAP	64	336	6
TAP	65	0	0
TAP	65	48	0
TAP	65	96	7
TAP	65	144	7
BRK	65	192	1
XTP	65	192	6
HLD	66	0	1	96
TAP	66	96	0
TAP	66	144	1
TAP	66	240	2
TAP	66	240	7
TAP	66	288	2
TAP	66	288	7
HLD	67	0	6	96
TAP	67	96	7
TAP	67	144	6
TAP	67	240	0
TAP	67	240	5
TAP	67	288	0
TAP	67	288	5
HLD	68	0	2	96
TAP	68	96	3
TAP	68	144	2
TAP	68	240	1
TAP	68	240	4
TAP	68	288	1
TAP	68	288	4
STR	69	0	5
SI_	69	0	5	96	96	0
TAP	69	96	3
STR	69	192	1
SI_	69	192	1	96	96	4
XTP	69	288	7
HLD	70	0	6	96
TAP	70	96	7
TAP	70	144	6
TAP	70	240	0
TAP	70	240	5
TAP	70	288	0
TAP	70	288	5
HLD	71	0	1	96
TAP	71	96	0
TAP	71	144	1
TAP	71	240	2
TAP	71	240	7
TAP	71	288	2
TAP	71	288	7
HLD	72	0	5	96
TAP	72	96	4
TAP	72	144	5
TAP	72	240	3
TAP	72	240	6
TAP	72	288	3
STR	72	288	6
SXL	72	288	6	96	288	2
BRK	73	288	0
TAP	74	0	1
TAP	74	0	3
TAP	74	96	2
TAP	74	96	4
TAP	74	192	3
TAP	74	192	5
TAP	74	288	4
TAP	74	288	6
TAP	75	0	1
TAP	75	0	5
STR	75	48	1
SI_	75	48	1	96	96	4
STR	75	48	5
SI_	75	48	5	96	96	0
TAP	76	0	1
TAP	76	96	0
TAP	76	96	2
TAP	76	192	6
TAP	76	288	5
TAP	76	288	7
TAP	77	0	3
TAP	77	0	4
STR	77	48	3
SCL	77	48	3	96	96	0
STR	77	48	4
SCR	77	48	4	96	96	7
TAP	78	0	1
TAP	78	96	0
TAP	78	96	1
TAP	78	192	6
TAP	78	288	6
TAP	78	288	7
TAP	79	0	4
TAP	79	0	5
TAP	79	96	2
TAP	79	96	3
TAP	79	192	0
TAP	79	192	1
TAP	79	288	6
TAP	79	288	7
STR	80	0	5
SCL	80	0	5	96	96	2
TAP	80	96	0
STR	80	192	1
SI_	80	192	1	96	96	5
TAP	80	288	7
STR	81	0	6
SI_	81	0	6	96	96	2
TAP	81	96	0
STR	81	192	1
SCL	81	192	1	96	96	6
TAP	81	288	4
THO	82	0	0	1344	C	0	M1
TAP	86	0	1
TAP	86	96	0
TAP	86	96	1
TAP	86	192	6
TAP	86	288	6
TAP	86	288	7
TAP	87	0	5
TAP	87	96	4
TAP	87	96	6
TAP	87	192	2
TAP	87	288	1
TAP	87	288	3
TAP	88	0	2
TAP	88	48	2
TAP	88	96	5
TAP	88	144	5
TAP	88	192	3
TAP	88	240	3
TAP	88	288	4
TAP	88	336	4
XTP	89	48	1
XTP	89	48	6
XTP	89	96	1
XTP	89	96	6
XTP	89	144	1
XTP	89	144	6
XTP	89	192	1
XTP	89	192	6
TTP	89	288	0	C	0	M1
STR	90	0	2
SI_	90	0	2	96	96	7
TAP	90	96	4
STR	90	192	6
SI_	90	192	6	96	48	1
TAP	90	288	0
STR	91	0	2
SI_	91	0	2	96	96	5
TAP	91	96	7
STR	91	192	6
SI_	91	192	6	96	48	3
TAP	91	288	2
STR	92	0	0
SI_	92	0	0	96	96	4
TAP	92	96	5
STR	92	192	6
SI_	92	192	6	96	96	2
TAP	92	288	3
TAP	93	0	1
TAP	93	96	0
TAP	93	96	2
TAP	93	192	7
TAP	93	240	7
TAP	93	288	0
TAP	93	336	0
STR	94	0	6
SI_	94	0	6	96	96	3
TAP	94	96	0
STR	94	192	2
SI_	94	192	2	96	96	5
TAP	94	288	4
STR	95	0	6
SI_	95	0	6	96	96	1
TAP	95	96	0
STR	95	192	2
SI_	95	192	2	96	96	7
TAP	95	288	4
TAP	96	0	6
TAP	96	96	5
TAP	96	96	7
TAP	96	192	0
TAP	96	240	0
BRK	96	288	7
TTP	97	0	1	B	0	M1
TTP	97	0	2	B	0	M1
TTP	97	0	2	E	0	M1
TTP	97	96	5	B	0	M1
TTP	97	96	6	B	0	M1
TTP	97	96	6	E	0	M1
TTP	97	192	3	B	0	M1
TTP	97	192	4	B	0	M1
TTP	97	192	4	E	0	M1
BST	97	288	0
SCR	97	288	0	96	240	7
TAP	98	288	5
TAP	98	336	5
TAP	99	48	6
TAP	99	48	7
TAP	99	144	0
TAP	99	144	1
TAP	99	240	2
TAP	99	240	3
TAP	99	336	4
STR	99	336	5
SI_	99	336	5	96	96	2
TAP	100	48	0
STR	100	144	1
SI_	100	144	1	96	96	6
TAP	100	240	5
STR	100	336	4
SI_	100	336	4	96	96	7
TAP	101	48	3
HLD	101	144	0	96
TAP	101	240	7
BRK	101	288	7
TAP	102	0	0
TAP	102	48	1
TAP	102	96	2
TAP	102	144	7
TAP	102	192	6
TAP	102	240	5
TAP	102	288	1
TAP	102	336	2
TAP	103	0	3
TAP	103	48	6
TAP	103	96	5
TAP	103	144	4
TAP	103	192	3
TAP	103	240	2
TAP	103	288	1
TAP	103	336	4
TAP	104	0	5
TAP	104	48	6
TAP	104	96	2
TAP	104	144	1
TAP	104	192	0
TAP	104	240	5
TAP	104	288	6
XTP	104	336	0
XTP	104	336	7
XTP	105	48	1
BRK	105	48	3
BRK	105	144	4
XTP	105	144	6
BRK	105	240	0
BRK	105	240	7
BRK	105	288	0
BRK	105	288	7
TTP	106	0	0	C	1	M1
TTP	106	0	1	B	0	M1
TTP	106	0	2	B	0	M1
TTP	106	0	5	B	0	M1
TTP	106	0	6	B	0	M1
STR	109	0	3
SXR	109	0	3	96	288	0
STR	109	0	4
SXL	109	0	4	96	288	7

T_REC_TAP	317
T_REC_BRK	14
T_REC_XTP	14
T_REC_HLD	33
T_REC_XHO	0
T_REC_STR	40
T_REC_BST	1
T_REC_XST	0
T_REC_TTP	43
T_REC_THO	2
T_REC_SLD	41
T_REC_ALL	505
T_NUM_TAP	414
T_NUM_BRK	15
T_NUM_HLD	35
T_NUM_SLD	41
T_NUM_ALL	505
T_JUDGE_TAP	429
T_JUDGE_HLD	170
T_JUDGE_SLD	41
T_JUDGE_ALL	640
TTM_EACHPAIRS	90
TTM_SCR_TAP	207000
TTM_SCR_BRK	39000
TTM_SCR_HLD	35000
TTM_SCR_SLD	61500
TTM_SCR_ALL	342500
TTM_SCR_S	330800
TTM_SCR_SS	341000
TTM_RAT_ACV	10043

