VERSION	0.00.00	1.03.00
FES_MODE	0
BPM_DEF	205.000	205.000	205.000	205.000
MET_DEF	4	4
RESOLUTION	384
CLK_DEF	384
COMPATIBLE_CODE	MA2

BPM	0	0	205.000
MET	0	0	4	4

HLD	2	0	2	384
TAP	3	0	3
TAP	3	192	4
HLD	4	0	5	384
TAP	5	0	4
TAP	5	192	3
HLD	6	0	2	384
HLD	7	0	3	384
HLD	8	0	4	384
TAP	9	0	5
HLD	10	0	3	192
TAP	10	192	4
TAP	11	0	5
TAP	11	96	5
TAP	11	192	5
HLD	12	0	4	192
TAP	12	192	3
TAP	13	0	2
TAP	13	96	2
TAP	13	192	2
HLD	14	0	1	192
TAP	14	192	0
HLD	15	0	6	192
TAP	15	192	7
HLD	16	0	0	192
HLD	16	192	7	192
TAP	17	0	0
XTP	17	192	1
XTP	17	192	6
TAP	18	0	2
TAP	18	96	2
TAP	18	192	3
TAP	18	288	3
TAP	19	0	4
TAP	19	192	3
TAP	19	192	5
TAP	20	0	5
TAP	20	96	5
TAP	20	192	4
TAP	20	288	4
TAP	21	0	3
TAP	21	192	2
TAP	21	192	4
TAP	22	0	1
TAP	22	96	1
TAP	22	192	0
TAP	22	288	0
TAP	23	0	7
TAP	23	192	0
TAP	23	192	6
TAP	24	0	5
TAP	24	96	5
TAP	24	192	6
TAP	24	288	6
XTP	25	0	0
XTP	25	0	7
XTP	25	192	1
XTP	25	192	6
XTP	26	0	2
TAP	26	96	2
TAP	26	192	3
TAP	26	288	3
TAP	27	0	4
TAP	27	192	3
TAP	27	192	6
TAP	28	0	6
TAP	28	96	6
TAP	28	192	7
TAP	28	288	7
TAP	29	0	0
TAP	29	192	2
TAP	29	192	7
XTP	30	0	2
TAP	30	96	2
TAP	30	192	3
TAP	30	288	3
TAP	31	0	4
TAP	31	96	4
TAP	31	192	3
TAP	31	192	5
XTP	32	0	4
XTP	32	0	6
XTP	32	192	1
XTP	32	192	3
HLD	33	0	3	96
HLD	33	0	4	96
BRK	33	192	2
BRK	33	192	5
HLD	34	0	1	192
HLD	34	192	2	192
TAP	35	0	3
TAP	35	192	3
TAP	35	192	4
HLD	36	0	6	192
HLD	36	192	5	192
TAP	37	0	4
TAP	37	192	3
TAP	37	192	4
HLD	38	0	2	192
HLD	38	192	1	192
TAP	39	0	0
TAP	39	192	0
TAP	39	192	7
HLD	40	0	0	192
HLD	40	0	7	192
TAP	41	0	1
TAP	41	0	6
TAP	41	96	1
TAP	41	96	6
BRK	41	192	1
BRK	41	192	6
THO	42	0	0	1152	C	0	L1
TTP	46	0	6	B	0	L1
TTP	46	0	7	E	0	L1
TTP	47	0	1	B	0	L1
TTP	47	0	2	B	0	L1
TTP	48	0	5	B	0	L1
TTP	48	0	5	E	0	L1
TTP	49	0	3	B	0	L1
TTP	49	0	3	E	0	L1
TTP	50	0	5	E	0	L1
TTP	50	192	6	E	0	L1
TTP	51	0	7	B	0	L1
TTP	51	0	7	E	0	L1
TTP	52	0	3	E	0	L1
TTP	52	192	2	E	0	L1
TTP	53	0	0	B	0	L1
TTP	53	0	1	E	0	L1
TTP	54	0	5	E	0	L1
TTP	54	192	6	E	0	L1
TTP	55	0	7	E	0	L1
TTP	55	192	0	E	0	L1
TTP	56	0	1	E	0	L1
TTP	56	192	2	E	0	L1
TTP	57	0	3	E	0	L1
TTP	57	0	5	E	0	L1
STR	58	0	4
SI_	58	0	4	96	480	7
STR	60	0	0
SI_	60	0	0	96	480	3
TAP	62	0	5
TAP	62	96	5
TAP	62	192	4
TAP	62	192	5
TAP	63	0	2
TAP	63	96	2
TAP	63	192	2
TAP	63	192	3
TAP	64	0	1
TAP	64	96	1
TAP	64	192	0
TAP	64	288	0
HLD	65	0	0	96
HLD	65	0	7	96
BRK	65	192	1
BRK	65	192	6
TAP	66	0	2
TAP	66	96	2
TAP	66	96	3
TAP	66	192	5
TAP	66	288	4
TAP	66	288	5
TAP	67	0	6
TAP	67	96	6
TAP	67	96	7
XTP	67	192	0
XTP	67	288	0
TAP	68	0	1
TAP	68	96	0
TAP	68	96	1
TAP	68	192	6
TAP	68	288	6
TAP	68	288	7
TAP	69	0	5
TAP	69	96	4
TAP	69	96	5
TAP	69	192	3
TAP	69	192	6
TAP	70	0	2
TAP	70	96	2
TAP	70	96	3
TAP	70	192	1
TAP	70	192	4
TAP	70	288	1
TAP	70	288	4
TAP	71	0	5
TAP	71	96	4
TAP	71	96	5
TAP	71	192	3
TAP	71	192	6
TAP	71	288	3
TAP	71	288	6
TAP	72	0	2
TAP	72	96	3
TAP	72	192	5
TAP	72	288	4
HLD	73	0	3	96
HLD	73	0	4	96
XTP	73	192	2
XTP	73	192	5
HLD	74	0	1	96
TAP	74	96	0
HLD	74	192	6	96
TAP	74	288	7
HLD	75	0	1	96
TAP	75	96	0
TAP	75	192	2
TAP	75	192	7
HLD	76	0	2	96
TAP	76	96	3
HLD	76	192	5	96
TAP	76	288	4
TAP	77	0	2
TAP	77	0	3
TAP	77	96	1
TAP	77	96	4
TAP	77	192	0
TAP	77	192	5
HLD	78	0	4	96
HLD	78	0	6	96
TAP	78	192	4
TAP	78	192	6
TAP	78	288	5
HLD	79	0	3	96
HLD	79	0	4	96
TAP	79	192	3
TAP	79	192	4
TAP	79	288	2
TAP	80	0	1
TAP	80	0	3
TAP	80	96	0
TAP	80	192	0
TAP	80	192	7
TAP	80	288	0
TAP	80	288	7
XHO	81	0	1	192
XHO	81	0	6	192
TTP	82	0	0	C	1	L1
TTP	86	0	5	E	0	L1
TTP	86	192	4	E	0	L1
TTP	87	0	3	E	0	L1
TTP	87	192	2	E	0	L1
TTP	88	0	1	E	0	L1
TTP	88	0	7	E	0	L1
TTP	88	192	2	E	0	L1
TTP	88	192	6	E	0	L1
THO	89	0	0	192	C	0	L1
XTP	90	0	0
XTP	90	0	7
TAP	90	96	0
TAP	90	96	7
TAP	90	192	1
TAP	90	288	2
TAP	91	0	2
TAP	91	0	3
TAP	91	96	2
TAP	91	96	3
TAP	91	192	4
TAP	91	288	5
TAP	92	0	3
TAP	92	0	6
TAP	92	96	3
TAP	92	96	6
TAP	92	192	2
TAP	92	192	5
TAP	92	288	2
TAP	92	288	5
TAP	93	0	1
TAP	93	0	4
TAP	93	96	1
TAP	93	96	4
TAP	93	192	2
TAP	93	192	3
XTP	94	0	3
XTP	94	0	4
TAP	94	96	3
TAP	94	96	4
TAP	94	192	5
TAP	94	288	6
TAP	95	0	6
TAP	95	0	7
TAP	95	96	6
TAP	95	96	7
TAP	95	192	0
TAP	95	288	1
TAP	96	0	2
TAP	96	0	7
TAP	96	96	2
TAP	96	96	7
TAP	96	192	1
TAP	96	192	6
TAP	96	288	1
TAP	96	288	6
TAP	97	0	0
TAP	97	0	7
TAP	97	96	1
TAP	97	96	6
XTP	97	192	2
XTP	97	192	5
HLD	98	0	2	96
HLD	98	0	3	96
TAP	98	192	2
TAP	98	192	3
TAP	98	288	3
TAP	98	288	4
TAP	99	0	4
TAP	99	0	5
TAP	99	96	4
TAP	99	96	5
TAP	99	192	3
TAP	99	192	6
HLD	100	0	6	96
HLD	100	0	7	96
TAP	100	192	6
TAP	100	192	7
TAP	100	288	0
TAP	100	288	7
TAP	101	0	0
TAP	101	0	1
TAP	101	96	0
TAP	101	96	1
TAP	101	192	2
TAP	101	192	7
TAP	102	0	7
TAP	102	96	6
TAP	102	192	5
TAP	102	288	4
TAP	103	0	3
TAP	103	96	2
TAP	103	192	1
TAP	103	288	0
TAP	104	0	0
TAP	104	0	7
TAP	104	96	1
TAP	104	96	6
TAP	104	192	2
TAP	104	192	5
STR	104	288	3
SI_	104	288	3	96	192	7
STR	104	288	4
SI_	104	288	4	96	192	0
BRK	106	0	1
BRK	106	0	6

T_REC_TAP	230
T_REC_BRK	8
T_REC_XTP	22
T_REC_HLD	38
T_REC_XHO	2
T_REC_STR	4
T_REC_BST	0
T_REC_XST	0
T_REC_TTP	33
T_REC_THO	2
T_REC_SLD	4
T_REC_ALL	343
T_NUM_TAP	289
T_NUM_BRK	8
T_NUM_HLD	42
T_NUM_SLD	4
T_NUM_ALL	343
T_JUDGE_TAP	297
T_JUDGE_HLD	170
T_JUDGE_SLD	4
T_JUDGE_ALL	471
TTM_EACHPAIRS	90
TTM_SCR_TAP	144500
TTM_SCR_BRK	20800
TTM_SCR_HLD	42000
TTM_SCR_SLD	6000
TTM_SCR_ALL	213300
TTM_SCR_S	206150
TTM_SCR_SS	212500
TTM_RAT_ACV	10037

