VERSION	0.00.00	1.03.00
FES_MODE	0
BPM_DEF	205.000	205.000	205.000	205.000
MET_DEF	4	4
RESOLUTION	384
CLK_DEF	384
COMPATIBLE_CODE	MA2

BPM	0	0	205.000
MET	0	0	4	4

TAP	10	0	3
TAP	11	0	3
TAP	12	0	4
TAP	13	0	4
TAP	14	0	5
TAP	15	0	5
TAP	16	0	6
BRK	17	0	6
TAP	18	0	7
TAP	18	192	7
TAP	19	0	7
TAP	20	0	0
TAP	20	192	0
TAP	21	0	0
TAP	22	0	1
TAP	22	192	1
TAP	23	0	1
TAP	24	0	2
TAP	24	192	2
TAP	25	0	2
XHO	26	0	3	192
TAP	27	0	3
TAP	27	0	4
TAP	28	0	4
TAP	28	192	4
TAP	29	0	3
TAP	29	0	4
XHO	30	0	4	192
TAP	31	0	3
TAP	31	0	5
TAP	32	0	3
TAP	32	192	3
BRK	33	0	2
BRK	33	0	4
TTP	34	0	2	B	0	L1
TTP	35	0	3	B	0	L1
TTP	36	0	4	B	0	L1
TTP	37	0	3	B	0	L1
TTP	37	0	5	B	0	L1
TTP	38	0	6	B	0	L1
TTP	39	0	7	B	0	L1
TTP	40	0	0	B	0	L1
TTP	41	0	1	B	0	L1
TTP	41	0	7	B	0	L1
STR	42	0	0
SI_	42	0	0	96	672	4
STR	46	0	7
SI_	46	0	7	96	672	3
TAP	50	0	2
TAP	51	0	1
HLD	52	0	0	384
TAP	54	0	7
TAP	55	0	6
HLD	56	0	5	384
TAP	58	0	4
TAP	58	192	4
TAP	59	0	4
TAP	60	0	3
TAP	60	192	3
TAP	61	0	3
TTP	62	0	3	B	0	L1
TTP	62	0	4	B	0	L1
TTP	63	0	2	B	0	L1
TTP	63	0	5	B	0	L1
THO	64	0	0	384	C	1	L1
TAP	66	0	0
TAP	66	192	0
TAP	67	0	0
TAP	67	96	0
TAP	67	192	0
TAP	68	0	1
TAP	68	192	1
TAP	69	0	1
TAP	69	96	1
TAP	69	192	1
TAP	70	0	2
TAP	70	192	2
TAP	71	0	3
TAP	71	192	3
TAP	72	0	4
TAP	72	96	4
TAP	72	192	4
XTP	73	0	3
XTP	73	0	4
TAP	74	0	4
TAP	74	192	4
TAP	75	0	4
TAP	75	96	4
TAP	75	192	4
TAP	76	0	5
TAP	76	192	5
TAP	77	0	5
TAP	77	96	5
TAP	77	192	5
TAP	78	0	6
TAP	78	192	6
TAP	79	0	7
TAP	79	192	7
TAP	80	0	0
TAP	80	96	0
TAP	80	192	0
BRK	81	0	0
BRK	81	0	7
STR	82	0	0
SI_	82	0	0	96	672	4
TTP	86	0	3	B	0	L1
TTP	86	0	4	B	0	L1
TTP	87	0	2	B	0	L1
TTP	87	0	5	B	0	L1
THO	88	0	0	384	C	1	L1
TAP	90	0	7
TAP	90	96	7
TAP	90	192	7
TAP	91	0	6
TAP	91	96	6
TAP	91	192	6
TAP	92	0	5
TAP	92	96	5
TAP	92	192	5
TAP	93	0	4
TAP	93	96	4
TAP	93	192	3
TAP	93	192	4
TAP	94	0	3
TAP	94	96	3
TAP	94	192	3
TAP	95	0	2
TAP	95	96	2
TAP	95	192	2
TAP	96	0	1
TAP	96	96	1
TAP	96	192	1
TAP	97	0	0
TAP	97	0	7
TAP	97	96	0
TAP	97	96	7
BRK	97	192	0
BRK	97	192	7
TAP	98	0	7
TAP	98	96	7
TAP	98	192	6
TAP	98	288	6
TAP	99	0	5
TAP	99	96	5
TAP	99	192	3
TAP	99	192	4
TAP	100	0	3
TAP	100	96	3
TAP	100	192	2
TAP	100	288	2
TAP	101	0	1
TAP	101	96	1
TAP	101	192	0
TAP	101	192	7
TAP	102	0	0
TAP	102	96	0
TAP	102	192	1
TAP	102	288	1
TAP	103	0	2
TAP	103	96	2
TAP	103	192	3
TAP	103	288	3
TAP	104	0	4
TAP	104	96	4
TAP	104	192	3
TAP	104	192	4
THO	105	0	0	384	C	1	L1
STR	108	0	7
SI_	108	0	7	96	672	3

T_REC_TAP	127
T_REC_BRK	7
T_REC_XTP	2
T_REC_HLD	2
T_REC_XHO	2
T_REC_STR	4
T_REC_BST	0
T_REC_XST	0
T_REC_TTP	18
T_REC_THO	3
T_REC_SLD	4
T_REC_ALL	169
T_NUM_TAP	151
T_NUM_BRK	7
T_NUM_HLD	7
T_NUM_SLD	4
T_NUM_ALL	169
T_JUDGE_TAP	158
T_JUDGE_HLD	48
T_JUDGE_SLD	4
T_JUDGE_ALL	210
TTM_EACHPAIRS	13
TTM_SCR_TAP	75500
TTM_SCR_BRK	18200
TTM_SCR_HLD	7000
TTM_SCR_SLD	6000
TTM_SCR_ALL	106700
TTM_SCR_S	102850
TTM_SCR_SS	106000
TTM_RAT_ACV	10066

