VERSION	0.00.00	1.03.00
FES_MODE	0
BPM_DEF	183.000	183.000	183.000	183.000
MET_DEF	4	4
RESOLUTION	384
CLK_DEF	384
COMPATIBLE_CODE	MA2

BPM	0	0	183.000
MET	0	0	4	4

HLD	2	0	6	768
TAP	2	96	4
TAP	2	288	4
STR	3	96	4
SCL	3	96	4	96	96	2
HLD	4	0	1	672
TAP	4	96	3
TAP	4	288	3
STR	5	96	3
SCL	5	96	3	96	96	7
TAP	6	0	2
TAP	6	0	3
TAP	6	96	0
TAP	6	96	1
TAP	6	192	3
TAP	6	192	4
TAP	6	288	0
TAP	6	288	1
TAP	7	0	2
TAP	7	0	3
TAP	7	96	0
TAP	7	96	1
TAP	7	192	3
TAP	7	192	4
TAP	7	288	0
TAP	7	288	1
TAP	8	0	4
TAP	8	0	5
TAP	8	96	6
TAP	8	96	7
TAP	8	192	3
TAP	8	192	4
TAP	8	288	6
TAP	8	288	7
TAP	9	0	4
TAP	9	0	5
TAP	9	96	6
TAP	9	96	7
TAP	9	192	2
TAP	9	192	5
TAP	9	240	3
TAP	9	264	4
TAP	9	288	3
STR	10	0	2
SCL	10	0	2	96	48	7
STR	10	96	5
SCR	10	96	5	96	48	0
STR	10	192	3
SUL	10	192	3	96	48	7
STR	10	288	4
SUR	10	288	4	96	48	0
STR	11	0	2
SCL	11	0	2	96	48	7
STR	11	96	5
SCR	11	96	5	96	48	0
TAP	11	192	3
TAP	11	240	3
TAP	11	288	4
TAP	11	288	6
STR	12	0	2
SCL	12	0	2	96	48	7
STR	12	96	5
SCR	12	96	5	96	48	0
STR	12	192	3
SUL	12	192	3	96	48	7
TAP	12	288	4
TAP	13	0	0
TTP	13	0	4	B	0	M1
TTP	13	0	5	B	0	M1
TTP	13	0	5	E	0	M1
TTP	13	96	2	B	0	M1
TTP	13	96	3	E	0	M1
TAP	13	96	7
STR	13	192	0
SI_	13	192	0	96	48	4
TTP	13	192	6	E	0	M1
XTP	13	288	7
HLD	14	0	1	96
HLD	14	0	5	96
TAP	14	144	4
TAP	14	192	4
TAP	14	240	2
TAP	14	288	2
TAP	14	336	6
HLD	15	0	4	96
HLD	15	0	6	96
TAP	15	144	7
TAP	15	192	7
TAP	15	240	3
STR	15	288	5
SI_	15	288	5	96	48	7
STR	16	0	1
SI_	16	0	1	96	48	3
STR	16	96	5
SI_	16	96	5	96	48	7
STR	16	192	1
SI_	16	192	1	96	48	3
STR	16	288	5
SI_	16	288	5	96	48	3
STR	17	0	1
SI_	17	0	1	96	48	7
STR	17	96	5
SI_	17	96	5	96	48	3
STR	17	192	1
SI_	17	192	1	96	48	7
TAP	17	288	5
HLD	18	0	2	96
HLD	18	0	3	96
HLD	18	192	4	96
HLD	18	192	5	96
HLD	19	0	2	48
HLD	19	0	4	48
HLD	19	96	3	48
HLD	19	96	5	48
TAP	19	192	2
TAP	19	192	4
TAP	19	240	1
STR	19	288	1
SI_	19	288	1	96	48	4
BRK	20	0	4
TAP	20	96	3
TAP	20	96	5
STR	20	144	3
SI_	20	144	3	96	48	0
STR	20	144	5
SI_	20	144	5	96	48	0
TAP	20	336	1
TAP	20	336	7
TAP	21	48	2
TAP	21	48	4
STR	21	96	2
SLR	21	96	2	96	96	0
SLR	21	96	2	96	96	6
TAP	21	96	4
HLD	22	0	2	96
HLD	22	0	6	96
TAP	22	144	3
TAP	22	192	3
TAP	22	240	5
TAP	22	288	5
HLD	22	336	1	96
HLD	22	336	3	96
TAP	23	144	0
TAP	23	192	0
TAP	23	240	4
STR	23	288	2
SCL	23	288	2	96	48	0
STR	24	0	6
SCL	24	0	6	96	48	4
STR	24	96	2
SCL	24	96	2	96	48	0
STR	24	192	6
SCL	24	192	6	96	48	4
STR	24	288	2
SCR	24	288	2	96	48	4
STR	25	0	6
SCR	25	0	6	96	48	0
STR	25	96	2
SCR	25	96	2	96	48	4
STR	25	192	6
SCR	25	192	6	96	48	0
TAP	25	288	2
HLD	26	0	4	96
TAP	26	0	5
TAP	26	96	2
HLD	26	144	2	192
TAP	26	240	1
HLD	26	336	0	192
TAP	27	48	7
HLD	27	144	6	144
TAP	27	240	4
TAP	27	288	4
TAP	28	0	5
TAP	28	48	5
TAP	28	96	4
TAP	28	144	1
TAP	28	144	3
TAP	28	240	4
TAP	28	240	6
STR	28	336	5
SUL	28	336	5	96	144	2
STR	28	336	6
SXL	28	336	6	96	144	1
TAP	30	0	1
STR	30	0	6
SCL	30	0	6	96	48	3
TTP	30	96	0	B	0	M1
TTP	30	96	7	B	0	M1
STR	30	192	1
SCR	30	192	1	96	48	4
TAP	30	192	6
TTP	30	288	0	B	0	M1
TTP	30	288	7	B	0	M1
TAP	31	0	5
TAP	31	64	5
TAP	31	96	4
TAP	31	192	2
TAP	31	256	2
TAP	31	288	3
TAP	32	0	6
TAP	32	64	6
TAP	32	96	4
TAP	32	160	4
TAP	32	192	3
TAP	32	256	3
TAP	32	288	1
TAP	32	352	1
TAP	33	0	3
TAP	33	96	0
TAP	33	96	2
HLD	33	192	0	96
HLD	33	192	2	96
TAP	34	0	1
STR	34	0	6
SCL	34	0	6	96	48	3
TTP	34	96	0	B	0	M1
TTP	34	96	7	B	0	M1
STR	34	192	1
SCR	34	192	1	96	48	4
TAP	34	192	6
TTP	34	288	0	B	0	M1
TTP	34	288	7	B	0	M1
TAP	35	0	6
TAP	35	64	6
TAP	35	96	4
TAP	35	160	4
TAP	35	192	3
STR	35	288	0
SI_	35	288	0	96	48	3
TAP	35	288	6
TAP	36	0	4
TAP	36	96	1
STR	36	96	7
SI_	36	96	7	96	48	4
TAP	36	192	3
STR	36	288	0
SCR	36	288	0	96	48	3
TAP	36	288	6
TAP	37	0	4
TAP	37	96	1
STR	37	96	7
SCL	37	96	7	96	48	4
TAP	37	192	3
TAP	37	288	2
TAP	37	288	3
STR	38	0	0
SUR	38	0	0	96	192	3
STR	38	0	6
SXR	38	0	6	96	192	3
XTP	39	0	2
XTP	39	0	4
XTP	39	32	2
XTP	39	32	4
XTP	39	64	2
XTP	39	64	4
XST	39	96	2
SCL	39	96	2	96	48	7
XST	39	96	4
SV_	39	96	4	96	48	7
XTP	39	192	2
XTP	39	192	4
BRK	39	288	1
BRK	39	288	6
TAP	40	0	4
STR	40	0	5
SCR	40	0	5	96	48	7
STR	40	96	3
SUL	40	96	3	96	48	7
STR	40	192	4
SI_	40	192	4	96	48	7
HLD	40	288	2	96
TAP	41	0	3
TAP	41	48	3
STR	41	96	1
SUR	41	96	1	96	48	5
TAP	41	144	4
BRK	41	240	0
BRK	41	288	0
TAP	42	0	2
TAP	42	48	4
TAP	42	96	3
TAP	42	144	5
STR	42	192	1
SI_	42	192	1	96	48	4
STR	42	192	6
SI_	42	192	6	96	48	3
TAP	42	288	1
TAP	42	288	6
TAP	43	0	0
TAP	43	0	1
TAP	43	48	0
TAP	43	48	1
TAP	43	144	4
TAP	43	144	5
STR	43	192	4
SCL	43	192	4	96	48	1
STR	43	192	5
SCR	43	192	5	96	48	0
XTP	43	288	4
XTP	43	288	5
STR	44	0	2
SCL	44	0	2	96	48	0
TAP	44	0	3
STR	44	96	4
SUR	44	96	4	96	48	0
STR	44	192	3
SI_	44	192	3	96	48	0
HLD	44	288	5	96
TAP	45	0	4
TAP	45	48	4
STR	45	96	6
SUL	45	96	6	96	48	2
TAP	45	144	3
BRK	45	240	7
BRK	45	288	7
TAP	46	0	1
TAP	46	48	4
STR	46	96	3
SXL	46	96	3	96	96	3
SXR	46	96	3	96	96	3
TAP	46	192	3
TAP	47	0	2
TAP	47	0	5
TTP	47	96	3	B	0	M1
TTP	47	96	3	E	0	M1
TAP	47	96	6
TAP	47	192	1
TTP	47	192	4	B	0	M1
TTP	47	192	5	E	0	M1
TTP	47	288	3	B	0	M1
TTP	47	288	3	E	0	M1
TAP	47	288	6
STR	48	0	0
SI_	48	0	0	96	48	2
STR	48	0	7
SI_	48	0	7	96	48	3
TAP	48	96	0
TAP	48	96	7
STR	48	192	0
SI_	48	192	0	96	48	4
STR	48	192	7
SI_	48	192	7	96	48	5
TAP	48	288	0
TAP	48	288	7
TAP	49	0	2
TAP	49	48	2
STR	49	96	6
SUL	49	96	6	96	48	2
TAP	49	144	4
XTP	49	240	0
XST	49	288	0
SCR	49	288	0	96	96	4
STR	50	0	4
SUR	50	0	4	96	96	0
STR	50	96	0
SCR	50	96	0	96	96	4
STR	50	192	4
SUR	50	192	4	96	96	0
TAP	50	288	0
TAP	51	0	4
TAP	51	48	4
TAP	51	144	2
TAP	51	144	3
TAP	51	192	2
TAP	51	192	3
BRK	51	288	0
BRK	51	288	5
STR	52	0	0
SI_	52	0	0	96	48	4
STR	52	0	7
SI_	52	0	7	96	48	5
TAP	52	96	0
TAP	52	96	7
STR	52	192	0
SI_	52	192	0	96	48	2
STR	52	192	7
SI_	52	192	7	96	48	3
TAP	52	288	0
TAP	52	288	7
TAP	53	0	5
TAP	53	48	5
STR	53	96	1
SUR	53	96	1	96	48	5
TAP	53	144	3
XTP	53	240	7
XST	53	288	7
SCL	53	288	7	96	96	3
STR	54	0	3
SUL	54	0	3	96	96	7
STR	54	96	7
SCL	54	96	7	96	96	3
TAP	54	192	3
TAP	54	288	7
TAP	55	0	1
TAP	55	0	6
TAP	55	96	2
TAP	55	96	3
TAP	55	192	4
TAP	55	192	5
TAP	55	288	2
TAP	55	288	3
STR	56	0	2
SXR	56	0	2	96	192	4
STR	56	0	5
SXL	56	0	5	96	192	3
HLD	57	0	2	144
HLD	57	0	5	144
TTP	57	192	0	C	1	M1
TTP	57	192	2	E	0	M1
TTP	57	192	6	E	0	M1
STR	58	0	2
SI_	58	0	2	96	48	7
TAP	58	0	5
TAP	58	96	5
STR	58	192	2
SI_	58	192	2	96	48	7
TAP	58	192	4
TAP	58	288	4
STR	59	0	2
SI_	59	0	2	96	48	7
TAP	59	0	3
TAP	59	96	3
STR	59	192	2
SI_	59	192	2	96	48	7
TAP	59	192	4
TAP	59	288	4
TAP	60	0	2
STR	60	0	5
SI_	60	0	5	96	48	0
TAP	60	96	2
TAP	60	192	3
STR	60	192	5
SI_	60	192	5	96	48	0
TAP	60	288	3
TAP	61	0	4
STR	61	0	5
SI_	61	0	5	96	48	0
TAP	61	96	4
TAP	61	192	2
TAP	61	192	5
TAP	61	240	3
TAP	61	264	4
TAP	61	288	3
STR	62	0	2
SCL	62	0	2	96	48	7
STR	62	96	5
SCR	62	96	5	96	48	0
STR	62	192	3
SUL	62	192	3	96	48	6
STR	62	288	4
SUR	62	288	4	96	48	1
STR	63	0	2
SCL	63	0	2	96	48	7
STR	63	96	5
SCR	63	96	5	96	48	0
TAP	63	192	3
TAP	63	240	3
TAP	63	288	4
TAP	63	288	6
STR	64	0	2
SCL	64	0	2	96	48	7
STR	64	96	5
SCR	64	96	5	96	48	0
STR	64	192	3
SUL	64	192	3	96	48	6
STR	64	288	4
SUR	64	288	4	96	48	1
TAP	65	0	2
TAP	65	48	2
TAP	65	96	3
STR	65	96	5
SF_	65	96	5	96	96	1
XTP	65	192	5
TAP	66	0	3
TAP	66	0	4
BRK	66	96	0
BRK	66	96	7
TAP	66	192	2
TAP	66	192	4
TAP	66	240	1
TAP	66	264	3
STR	66	288	1
SI_	66	288	1	96	48	4
TAP	66	336	5
TAP	67	0	6
TAP	67	48	6
TAP	67	96	3
TAP	67	144	3
TAP	67	168	4
TAP	67	240	3
TAP	67	240	6
TAP	67	288	3
TAP	67	288	6
TAP	68	0	4
TAP	68	24	5
TAP	68	48	4
TAP	68	72	5
TAP	68	96	3
TAP	68	120	6
TAP	68	144	3
TAP	68	168	6
TAP	68	192	2
TAP	68	216	7
TAP	68	240	2
TAP	68	264	7
STR	68	288	1
SI_	68	288	1	96	48	5
STR	69	0	0
SI_	69	0	0	96	48	4
STR	69	96	1
SI_	69	96	1	96	48	5
STR	69	192	0
SI_	69	192	0	96	48	4
BRK	69	288	1
TAP	70	0	2
HLD	70	0	3	96
TAP	70	96	4
TAP	70	144	4
HLD	70	192	4	96
TAP	70	288	5
TAP	70	336	5
HLD	71	0	6	48
HLD	71	48	5	48
HLD	71	96	4	48
HLD	71	144	3	48
TAP	71	192	2
TAP	71	288	1
TAP	71	288	4
TAP	72	0	2
TAP	72	24	3
TAP	72	48	2
TAP	72	72	5
TAP	72	96	4
TAP	72	120	5
TAP	72	144	2
TAP	72	168	3
TAP	72	192	2
STR	72	288	4
SCL	72	288	4	96	96	7
STR	72	288	5
SXL	72	288	5	96	96	7
HLD	73	192	3	96
HLD	73	192	4	96
THO	74	0	0	384	C	0	M1
STR	74	0	7
SCL	74	0	7	96	192	3
STR	75	0	7
SCL	75	0	7	96	192	3
TAP	75	192	0
TAP	75	288	0
STR	76	0	0
SCR	76	0	0	96	192	4
THO	76	0	0	384	C	0	M1
STR	77	0	0
SSR	77	0	0	96	192	4
HLD	78	0	0	288
STR	78	0	6
SSR	78	0	6	96	192	2
STR	79	0	1
SSL	79	0	1	96	192	5
HLD	79	0	7	288
STR	80	0	3
SXR	80	0	3	96	96	5
TAP	80	0	6
BRK	80	96	6
BRK	80	192	6
TAP	80	288	0
TAP	80	288	7
TAP	81	0	1
STR	81	0	4
SXL	81	0	4	96	96	2
BRK	81	96	1
BRK	81	192	1
TAP	81	288	0
TAP	81	288	7
STR	82	0	2
SXL	82	0	2	96	96	0
STR	82	0	5
SXR	82	0	5	96	96	7
TAP	82	288	1
TAP	82	288	6
XTP	83	0	2
XTP	83	0	4
XTP	83	32	2
XTP	83	32	4
XTP	83	64	2
XTP	83	64	4
XTP	83	96	2
XTP	83	96	4
XTP	83	192	0
XST	83	192	5
SI_	83	192	5	96	48	0
XTP	84	0	3
XTP	84	0	5
XTP	84	32	3
XTP	84	32	5
XTP	84	64	3
XTP	84	64	5
XST	84	96	3
SV_	84	96	3	96	48	0
XST	84	96	5
SCR	84	96	5	96	48	0
XTP	84	192	3
XTP	84	192	5
BRK	84	288	1
BRK	84	288	6
TAP	85	0	2
TAP	85	0	3
TAP	85	48	2
TAP	85	48	3
TAP	85	192	3
TAP	85	192	6
TAP	85	240	3
TAP	85	240	6
XST	86	0	0
SCR	86	0	0	96	48	3
XST	86	0	7
SCL	86	0	7	96	48	4
XST	86	96	0
SI_	86	96	0	96	48	4
XST	86	96	7
SI_	86	96	7	96	48	3
XTP	86	192	0
XTP	86	192	7
BRK	86	288	1
BRK	86	288	6
TAP	87	0	5
TAP	87	48	3
TAP	87	96	4
TAP	87	144	2
STR	87	192	1
SV_	87	192	1	96	48	4
STR	87	192	6
SV_	87	192	6	96	48	3
TAP	87	288	1
TAP	87	288	6
HLD	88	0	2	96
HLD	88	0	5	96
BRK	88	192	0
BRK	88	192	7
BRK	88	288	0
BRK	88	288	7
STR	89	0	2
SCL	89	0	2	96	48	0
TAP	89	0	3
STR	89	96	4
SUR	89	96	4	96	48	0
STR	89	192	3
SI_	89	192	3	96	48	0
HLD	89	288	5	96
TAP	90	0	4
TAP	90	48	4
STR	90	96	6
SLL	90	96	6	96	96	2
TAP	90	144	3
BRK	90	240	7
BRK	90	288	7
HLD	91	0	1	48
TAP	91	48	4
HLD	91	96	5	48
TAP	91	144	3
STR	91	192	3
SXL	91	192	3	96	96	0
TAP	91	288	7
TAP	92	0	7
TTP	92	96	3	B	0	M1
TTP	92	96	3	E	0	M1
TAP	92	96	6
TAP	92	192	1
TTP	92	192	4	B	0	M1
TTP	92	192	5	E	0	M1
TTP	92	288	3	B	0	M1
TTP	92	288	3	E	0	M1
TAP	92	288	6
STR	93	0	0
SI_	93	0	0	96	48	4
STR	93	0	7
SCL	93	0	7	96	48	5
TAP	93	96	0
TAP	93	96	7
STR	93	192	0
SCR	93	192	0	96	48	2
STR	93	192	7
SI_	93	192	7	96	48	3
TAP	93	288	0
TAP	93	288	7
TAP	94	0	5
TAP	94	48	5
STR	94	96	1
SLR	94	96	1	96	96	5
TAP	94	144	3
XTP	94	240	7
XST	94	288	7
SCL	94	288	7	96	96	3
STR	95	0	3
SCL	95	0	3	96	96	7
STR	95	96	7
SCL	95	96	7	96	96	3
STR	95	192	3
SCL	95	192	3	96	96	7
TAP	95	288	7
TAP	96	0	3
TAP	96	48	3
TAP	96	144	4
TAP	96	144	5
TAP	96	192	4
TAP	96	192	5
BRK	96	288	2
BRK	96	288	7
STR	97	0	0
SCR	97	0	0	96	48	2
STR	97	0	7
SI_	97	0	7	96	48	3
TAP	97	96	0
TAP	97	96	7
STR	97	192	0
SI_	97	192	0	96	48	4
STR	97	192	7
SCL	97	192	7	96	48	5
TAP	97	288	0
TAP	97	288	7
TAP	98	0	2
TAP	98	48	2
STR	98	96	6
SLL	98	96	6	96	96	2
TAP	98	144	4
XTP	98	240	0
XST	98	288	0
SCR	98	288	0	96	96	4
STR	99	0	4
SCR	99	0	4	96	96	0
STR	99	96	0
SCR	99	96	0	96	96	4
TAP	99	192	4
TAP	99	288	0
TAP	100	0	1
TAP	100	0	6
TAP	100	96	4
TAP	100	96	5
TAP	100	192	2
TAP	100	192	3
TAP	100	288	4
TAP	100	288	5
TAP	101	0	2
STR	101	0	6
SSR	101	0	6	96	192	2
STR	102	0	1
SCR	102	0	1	96	96	5

T_REC_TAP	317
T_REC_BRK	28
T_REC_XTP	35
T_REC_HLD	43
T_REC_XHO	0
T_REC_STR	133
T_REC_BST	0
T_REC_XST	13
T_REC_TTP	29
T_REC_THO	2
T_REC_SLD	148
T_REC_ALL	748
T_NUM_TAP	527
T_NUM_BRK	28
T_NUM_HLD	45
T_NUM_SLD	148
T_NUM_ALL	748
T_JUDGE_TAP	555
T_JUDGE_HLD	133
T_JUDGE_SLD	148
T_JUDGE_ALL	836
TTM_EACHPAIRS	147
TTM_SCR_TAP	263500
TTM_SCR_BRK	72800
TTM_SCR_HLD	45000
TTM_SCR_SLD	222000
TTM_SCR_ALL	603300
TTM_SCR_S	582500
TTM_SCR_SS	600500
TTM_RAT_ACV	10046

