VERSION	0.00.00	1.03.00
FES_MODE	0
BPM_DEF	183.000	183.000	183.000	183.000
MET_DEF	4	4
RESOLUTION	384
CLK_DEF	384
COMPATIBLE_CODE	MA2

BPM	0	0	183.000
MET	0	0	4	4

TAP	2	96	3
TAP	2	96	4
TAP	2	288	3
TAP	2	288	4
TAP	3	96	3
TAP	3	96	4
TAP	3	240	2
TAP	3	288	2
TAP	4	96	3
TAP	4	96	4
TAP	4	288	3
TAP	4	288	4
TAP	5	96	3
TAP	5	96	4
TAP	5	240	5
TAP	5	288	5
TAP	6	0	2
TAP	6	0	4
TAP	6	96	1
TAP	6	192	2
TAP	6	192	3
TAP	6	288	1
TAP	7	0	2
TAP	7	0	4
STR	7	96	1
SCR	7	96	1	96	96	4
TAP	8	0	3
TAP	8	0	5
TAP	8	96	6
TAP	8	192	4
TAP	8	192	5
TAP	8	288	6
TAP	9	0	3
TAP	9	0	5
STR	9	96	6
SCL	9	96	6	96	96	2
TAP	10	0	1
TAP	10	0	3
TAP	10	96	3
TAP	10	96	4
TAP	10	192	4
TAP	10	192	6
TAP	10	288	3
TAP	10	288	4
TAP	11	0	1
TAP	11	0	3
TAP	11	96	3
TAP	11	96	4
TAP	11	192	6
TAP	11	240	6
TAP	11	288	0
TAP	12	0	0
TAP	12	0	2
TAP	12	96	0
TAP	12	96	7
TAP	12	192	5
TAP	12	192	7
TAP	12	288	0
TAP	12	288	7
BRK	13	0	2
BRK	13	96	1
BRK	13	192	0
BRK	13	288	1
BRK	13	288	6
HLD	14	0	5	288
TAP	14	144	4
TAP	14	192	4
TAP	14	288	3
HLD	15	0	2	288
TAP	15	144	3
TAP	15	192	3
TAP	15	288	4
HLD	16	0	5	96
HLD	16	96	4	96
HLD	16	192	3	96
HLD	16	288	2	240
TAP	17	0	4
TAP	17	96	3
TAP	17	144	3
XTP	17	240	3
XTP	17	240	4
XTP	17	336	2
XTP	17	336	5
TTP	18	192	0	B	0	M1
TTP	18	192	7	B	0	M1
TTP	19	0	2	E	0	M1
TTP	19	96	6	E	0	M1
TTP	19	192	0	C	0	M1
BRK	20	0	6
TAP	20	96	0
TAP	20	96	7
TAP	20	192	1
STR	20	288	2
SUL	20	288	2	96	96	5
BRK	21	192	0
BRK	21	192	7
HLD	22	0	2	192
TAP	22	144	3
TAP	22	192	3
TAP	22	288	3
TAP	22	288	4
HLD	23	0	5	192
TAP	23	144	4
TAP	23	192	4
TAP	23	288	3
TAP	23	288	4
TTP	24	0	2	B	0	M1
TTP	24	96	1	B	0	M1
TTP	24	192	0	B	0	M1
TTP	24	288	7	B	0	M1
TTP	25	0	6	B	0	M1
TTP	25	96	5	B	0	M1
TTP	25	192	3	B	0	M1
TTP	25	192	4	B	0	M1
HLD	26	0	2	96
HLD	26	96	1	96
HLD	26	192	0	96
HLD	26	288	7	96
HLD	27	0	6	96
HLD	27	96	5	96
HLD	27	192	4	96
STR	27	288	3
SXL	27	288	3	96	288	6
SXR	27	288	3	96	288	0
XST	29	96	1
SI_	29	96	1	96	96	5
XST	29	96	6
SI_	29	96	6	96	96	2
HLD	30	0	0	96
HLD	30	96	6	96
HLD	30	192	7	96
STR	30	288	0
SUL	30	288	0	96	192	7
TAP	31	288	1
TAP	31	288	7
HLD	32	0	6	96
XTP	32	64	7
XTP	32	96	7
HLD	32	192	1	96
XTP	32	256	0
XTP	32	288	0
HLD	33	0	2	96
XTP	33	64	3
XTP	33	96	3
HLD	33	192	5	96
XTP	33	256	4
XTP	33	288	4
HLD	34	0	7	96
HLD	34	96	1	96
HLD	34	192	0	96
STR	34	288	7
SUR	34	288	7	96	192	0
TAP	35	288	7
TAP	36	0	4
TAP	36	0	6
TAP	36	96	2
TAP	36	96	3
TAP	36	192	1
TAP	36	192	3
TAP	36	288	0
TAP	37	0	1
TAP	37	0	3
TAP	37	96	4
TAP	37	96	5
TAP	37	192	4
TAP	37	192	6
TAP	37	288	0
TAP	37	288	7
HLD	38	0	1	288
TAP	38	0	6
TTP	38	96	4	B	0	M1
TTP	38	192	3	B	0	M1
TTP	38	288	0	C	1	M1
XTP	39	0	7
XTP	39	32	0
XTP	39	64	7
XTP	39	96	0
BRK	39	192	0
BRK	39	192	7
BRK	39	288	1
BST	39	288	6
SI_	39	288	6	96	48	3
STR	40	0	7
SI_	40	0	7	96	48	2
STR	40	96	6
SI_	40	96	6	96	48	3
STR	40	192	7
SI_	40	192	7	96	48	2
TAP	40	288	6
TAP	41	0	3
TAP	41	0	4
TAP	41	96	0
TAP	41	96	1
TAP	41	144	0
TAP	41	144	1
BRK	41	240	7
BRK	41	288	7
HLD	42	0	2	96
TAP	42	0	4
HLD	42	96	0	96
STR	42	192	7
SI_	42	192	7	96	48	3
TAP	43	48	2
TAP	43	48	4
TAP	43	144	3
TAP	43	144	6
TAP	43	192	3
TAP	43	192	6
BST	43	288	1
SI_	43	288	1	96	48	4
BRK	43	288	7
STR	44	0	0
SI_	44	0	0	96	48	5
STR	44	96	1
SI_	44	96	1	96	48	4
STR	44	192	0
SI_	44	192	0	96	48	5
TAP	44	288	1
TAP	45	0	3
TAP	45	0	4
TAP	45	96	6
TAP	45	96	7
TAP	45	144	6
TAP	45	144	7
BRK	45	240	0
BRK	45	288	0
TAP	46	0	5
TAP	46	48	5
TAP	46	96	2
TAP	46	144	2
TAP	46	192	3
TAP	46	192	4
TAP	46	288	0
TAP	46	288	7
BRK	47	0	0
BRK	47	0	7
BRK	47	96	1
BRK	47	96	6
BRK	47	192	2
BRK	47	192	4
BRK	47	288	3
BST	47	288	6
SI_	47	288	6	96	48	3
STR	48	0	1
SI_	48	0	1	96	48	4
STR	48	96	6
SI_	48	96	6	96	48	3
STR	48	192	1
SI_	48	192	1	96	48	4
TAP	48	288	6
TAP	49	0	4
TAP	49	0	5
TAP	49	96	0
TAP	49	96	1
TAP	49	144	0
TAP	49	144	1
BRK	49	240	7
BRK	49	288	7
HLD	50	0	2	96
TAP	50	0	4
HLD	50	96	0	96
STR	50	192	7
SI_	50	192	7	96	48	3
TAP	51	48	4
TAP	51	48	5
TAP	51	144	2
TAP	51	144	7
TAP	51	192	2
TAP	51	192	7
BST	51	288	1
SI_	51	288	1	96	48	4
BRK	51	288	4
STR	52	0	6
SI_	52	0	6	96	48	3
STR	52	96	1
SI_	52	96	1	96	48	4
STR	52	192	6
SI_	52	192	6	96	48	3
TAP	52	288	1
TAP	53	0	3
TAP	53	0	4
TAP	53	96	6
TAP	53	96	7
TAP	53	144	6
TAP	53	144	7
BRK	53	240	0
BRK	53	288	0
TAP	54	0	6
TAP	54	48	6
TAP	54	96	1
TAP	54	144	1
TAP	54	192	0
TAP	54	192	7
TAP	54	288	3
TAP	54	288	4
BRK	55	0	1
BRK	55	0	6
TTP	55	96	1	B	0	M1
TTP	55	96	2	B	0	M1
TTP	55	96	2	E	0	M1
TTP	55	192	5	B	0	M1
TTP	55	192	6	B	0	M1
TTP	55	192	6	E	0	M1
TTP	55	288	0	C	0	M1
STR	56	0	7
SCL	56	0	7	96	48	5
STR	56	192	0
SCR	56	192	0	96	48	2
TAP	57	0	4
TAP	57	96	3
TTP	57	192	0	C	1	M1
TAP	58	0	0
TAP	58	0	6
TAP	58	96	5
TAP	58	192	6
TAP	58	192	7
TAP	58	288	5
TAP	59	0	0
TAP	59	0	6
STR	59	96	5
SCR	59	96	5	96	96	0
TAP	60	0	1
TAP	60	0	7
TAP	60	96	2
TAP	60	192	0
TAP	60	192	1
TAP	60	288	2
TAP	61	0	1
TAP	61	0	7
STR	61	96	2
SCL	61	96	2	96	96	6
TAP	62	0	5
TAP	62	0	7
TAP	62	96	0
TAP	62	96	7
TAP	62	192	0
TAP	62	192	2
TAP	62	288	0
TAP	62	288	7
TAP	63	0	5
TAP	63	0	7
TAP	63	96	0
TAP	63	96	7
TAP	63	192	1
TAP	63	240	1
TAP	63	288	3
TAP	64	0	4
TAP	64	0	6
TAP	64	96	3
TAP	64	96	4
TAP	64	192	1
TAP	64	192	3
TAP	64	288	3
TAP	64	288	4
THO	65	0	0	192	C	1	M1
XHO	66	0	0	96
XHO	66	0	1	96
XTP	66	192	5
XTP	66	240	4
XTP	66	288	6
XTP	66	336	6
XTP	67	0	2
XTP	67	48	3
XTP	67	96	1
XTP	67	144	1
XTP	67	192	0
XTP	67	192	7
XTP	67	288	3
XTP	67	288	4
XTP	68	0	0
XTP	68	24	7
XTP	68	48	0
XTP	68	72	7
XTP	68	96	0
XTP	68	120	7
XTP	68	144	0
XTP	68	168	7
XHO	68	192	0	96
XTP	68	288	7
XST	69	0	2
SI_	69	0	2	96	48	7
XST	69	0	6
SI_	69	0	6	96	48	3
BRK	69	192	1
BRK	69	192	5
XTP	69	288	3
XTP	69	288	4
XTP	70	0	6
XTP	70	0	7
XTP	70	48	6
XTP	70	48	7
XTP	70	96	6
XTP	70	96	7
XTP	70	192	1
XTP	70	192	3
XTP	70	240	1
XTP	70	240	3
XTP	70	288	1
XTP	70	288	3
XTP	71	0	4
XTP	71	0	5
XTP	71	96	2
XTP	71	96	3
XTP	71	192	4
XTP	71	192	6
XTP	71	288	1
XTP	71	288	3
XTP	72	0	6
XTP	72	24	7
XTP	72	48	6
XTP	72	72	7
XTP	72	96	6
XTP	72	192	1
XTP	72	216	0
XTP	72	240	1
XTP	72	264	0
XTP	72	288	1
XHO	73	0	0	96
XHO	73	0	7	96
BRK	73	192	1
BRK	73	192	6
HLD	74	0	3	192
HLD	74	192	2	192
STR	75	0	1
SI_	75	0	1	96	144	5
HLD	76	0	4	192
HLD	76	192	5	192
STR	77	0	6
SI_	77	0	6	96	144	2
HLD	78	0	1	192
HLD	78	192	3	192
HLD	79	0	4	192
TAP	79	192	6
TAP	79	288	3
TAP	80	0	0
TAP	80	0	2
TAP	80	96	6
TAP	80	96	7
TAP	80	192	5
TAP	80	192	7
TAP	80	288	4
TAP	81	0	5
TAP	81	0	7
TAP	81	96	0
TAP	81	96	1
TAP	81	192	0
TAP	81	192	2
TAP	81	288	3
TAP	81	288	4
TAP	82	0	1
HLD	82	0	6	288
TTP	82	96	4	B	0	M1
TTP	82	192	3	B	0	M1
TTP	82	288	0	C	1	M1
XTP	83	0	1
XTP	83	24	0
XTP	83	64	1
XTP	83	96	0
XTP	83	192	2
XST	83	192	7
SI_	83	192	7	96	32	5
BRK	84	0	7
BRK	84	32	0
BRK	84	64	7
BRK	84	96	0
BRK	84	192	1
BRK	84	192	6
TTP	84	288	0	C	1	M1
XTP	85	0	0
XTP	85	0	1
XTP	85	48	0
XTP	85	48	1
XTP	85	192	6
XTP	85	192	7
XTP	85	240	6
XTP	85	240	7
XTP	86	0	3
XTP	86	0	4
XTP	86	96	1
XTP	86	96	6
XTP	86	144	1
XTP	86	144	6
BRK	86	240	0
BRK	86	288	0
HLD	87	0	6	96
HLD	87	96	4	96
HLD	87	192	3	96
TAP	87	288	1
TTP	88	0	0	C	1	M1
BRK	88	192	1
BRK	88	192	7
BRK	88	288	0
BST	88	288	6
SI_	88	288	6	96	48	3
STR	89	0	7
SI_	89	0	7	96	48	2
STR	89	96	6
SI_	89	96	6	96	48	3
STR	89	192	7
SI_	89	192	7	96	48	2
TAP	89	288	6
TAP	90	0	3
TAP	90	0	4
TAP	90	96	0
TAP	90	96	1
TAP	90	144	0
TAP	90	144	1
BRK	90	240	7
BRK	90	288	7
TAP	91	0	2
TAP	91	48	2
TAP	91	96	5
TAP	91	144	5
TAP	91	192	3
TAP	91	192	4
TAP	91	288	0
TAP	91	288	7
BRK	92	0	0
BRK	92	0	7
BRK	92	96	1
BRK	92	96	6
BRK	92	192	3
BRK	92	192	4
BRK	92	288	0
BST	92	288	5
SI_	92	288	5	96	48	0
STR	93	0	2
SI_	93	0	2	96	48	7
STR	93	96	5
SI_	93	96	5	96	48	0
STR	93	192	2
SI_	93	192	2	96	48	7
TAP	93	288	5
TAP	94	0	6
TAP	94	0	7
TAP	94	96	2
TAP	94	96	3
TAP	94	144	2
TAP	94	144	3
BRK	94	240	0
BRK	94	288	0
TAP	95	0	1
HLD	95	0	6	96
HLD	95	96	4	96
STR	95	192	3
SI_	95	192	3	96	48	7
TAP	96	48	0
TAP	96	48	1
TAP	96	144	3
TAP	96	144	6
TAP	96	192	3
TAP	96	192	6
BRK	96	288	0
BST	96	288	5
SI_	96	288	5	96	48	0
STR	97	0	2
SI_	97	0	2	96	48	7
STR	97	96	5
SI_	97	96	5	96	48	0
STR	97	192	2
SI_	97	192	2	96	48	7
TAP	97	288	5
TAP	98	0	0
TAP	98	0	7
TAP	98	96	4
TAP	98	96	5
TAP	98	144	4
TAP	98	144	5
BRK	98	240	7
BRK	98	288	7
TAP	99	0	2
TAP	99	48	2
TAP	99	96	5
TAP	99	144	5
TAP	99	192	3
TAP	99	192	4
TAP	99	288	0
TAP	99	288	7
BRK	100	0	1
BRK	100	0	6
TTP	100	96	5	B	0	M1
TTP	100	96	6	E	0	M1
TTP	100	192	2	B	0	M1
TTP	100	192	2	E	0	M1
TTP	100	288	0	C	0	M1
STR	101	0	6
SI_	101	0	6	96	192	2
SCL	101	0	6	96	192	2
TTP	102	0	6	E	0	M1
TTP	102	96	2	E	0	M1
TTP	102	192	0	C	0	M1

T_REC_TAP	256
T_REC_BRK	61
T_REC_XTP	88
T_REC_HLD	43
T_REC_XHO	5
T_REC_STR	37
T_REC_BST	7
T_REC_XST	5
T_REC_TTP	37
T_REC_THO	1
T_REC_SLD	51
T_REC_ALL	591
T_NUM_TAP	423
T_NUM_BRK	68
T_NUM_HLD	49
T_NUM_SLD	51
T_NUM_ALL	591
T_JUDGE_TAP	491
T_JUDGE_HLD	137
T_JUDGE_SLD	51
T_JUDGE_ALL	679
TTM_EACHPAIRS	148
TTM_SCR_TAP	211500
TTM_SCR_BRK	176800
TTM_SCR_HLD	49000
TTM_SCR_SLD	76500
TTM_SCR_ALL	513800
TTM_SCR_S	491800
TTM_SCR_SS	507000
TTM_RAT_ACV	10134

