VERSION	0.00.00	1.03.00
FES_MODE	0
BPM_DEF	183.000	183.000	183.000	183.000
MET_DEF	4	4
RESOLUTION	384
CLK_DEF	384
COMPATIBLE_CODE	MA2

BPM	0	0	183.000
MET	0	0	4	4

HLD	2	0	3	384
HLD	2	0	4	384
HLD	4	0	3	384
HLD	4	0	4	384
HLD	6	0	5	192
TAP	6	192	4
HLD	7	0	2	192
TAP	7	192	3
HLD	8	0	1	192
TAP	8	192	0
HLD	9	0	6	192
TAP	9	192	7
TAP	10	0	5
TAP	10	96	5
TAP	10	192	4
TAP	10	288	4
TAP	11	0	3
TAP	11	96	3
TAP	11	192	2
TAP	11	192	4
TAP	12	0	3
TAP	12	96	3
TAP	12	192	2
TAP	12	288	2
XTP	13	0	2
XTP	13	96	1
XTP	13	192	0
BRK	13	288	0
STR	14	0	7
SI_	14	0	7	96	288	3
TAP	15	192	2
STR	16	0	1
SI_	16	0	1	96	288	5
TAP	17	192	6
STR	18	0	7
SCL	18	0	7	96	288	4
TAP	19	192	3
TAP	20	0	2
TAP	20	0	3
TAP	20	192	4
TAP	20	192	5
TAP	21	0	3
TAP	21	0	4
TAP	21	96	3
TAP	21	96	4
XTP	21	192	2
XTP	21	192	5
STR	22	0	1
SI_	22	0	1	96	288	5
TAP	23	192	6
STR	24	0	7
SI_	24	0	7	96	288	3
TAP	25	192	2
STR	26	0	1
SCR	26	0	1	96	288	4
TAP	27	192	5
TAP	28	0	6
TAP	28	0	7
TAP	28	192	0
TAP	28	192	1
TAP	29	0	0
TAP	29	0	7
TAP	29	96	0
TAP	29	96	7
BRK	29	192	1
BRK	29	192	6
TTP	30	0	0	B	0	L1
TTP	30	192	0	C	0	L1
TTP	31	0	4	B	0	L1
TTP	32	0	6	B	0	L1
TTP	32	192	0	C	0	L1
TTP	33	0	2	B	0	L1
TTP	34	0	3	B	0	L1
TTP	34	0	4	B	0	L1
TTP	34	192	2	B	0	L1
TTP	34	192	5	B	0	L1
TTP	35	0	1	B	0	L1
TTP	35	0	6	B	0	L1
TTP	36	0	2	E	0	L1
TTP	36	96	2	B	0	L1
TTP	36	192	3	B	0	L1
TTP	37	0	6	E	0	L1
TTP	37	96	5	B	0	L1
TTP	37	192	4	B	0	L1
TTP	38	0	1	B	0	L1
TTP	38	0	2	E	0	L1
TTP	38	192	6	B	0	L1
TTP	38	192	6	E	0	L1
THO	39	0	0	192	C	1	L1
XTP	40	0	0
XTP	40	0	7
XTP	40	96	0
XTP	40	96	7
XTP	40	192	1
XTP	40	192	6
XTP	40	288	1
XTP	40	288	6
TAP	41	0	2
TAP	41	96	3
TAP	41	192	1
TAP	41	192	4
TAP	42	0	5
TAP	42	96	4
TAP	42	96	5
TAP	42	192	2
TAP	42	288	2
TAP	42	288	3
TAP	43	0	4
TAP	43	96	3
TAP	43	96	4
TAP	43	192	2
TAP	43	192	5
XTP	44	0	0
XTP	44	0	7
XTP	44	96	0
XTP	44	96	7
XTP	44	192	1
XTP	44	192	6
XTP	44	288	1
XTP	44	288	6
TAP	45	0	5
TAP	45	96	4
TAP	45	192	3
TAP	45	192	6
HLD	46	0	2	96
HLD	46	0	3	96
HLD	46	192	4	96
HLD	46	192	5	96
TAP	47	0	3
TAP	47	0	4
TAP	47	96	2
TAP	47	96	5
XTP	47	192	1
XTP	47	192	6
XTP	48	0	1
XTP	48	0	7
XTP	48	96	1
XTP	48	96	7
XTP	48	192	0
XTP	48	192	6
XTP	48	288	0
XTP	48	288	6
TAP	49	0	5
TAP	49	96	4
TAP	49	192	3
TAP	49	192	6
TAP	50	0	6
TAP	50	96	6
TAP	50	96	7
TAP	50	192	1
TAP	50	288	0
TAP	50	288	1
TAP	51	0	7
TAP	51	96	0
TAP	51	96	7
XTP	51	192	1
XTP	51	192	6
XTP	52	0	2
XTP	52	0	3
XTP	52	96	3
XTP	52	96	4
XTP	52	192	4
XTP	52	192	5
XTP	52	288	3
XTP	52	288	4
TAP	53	0	2
TAP	53	0	5
TAP	53	96	1
TAP	53	96	6
XTP	53	192	0
XTP	53	192	7
HLD	54	0	1	96
HLD	54	0	3	96
HLD	54	192	4	96
HLD	54	192	6	96
HLD	55	0	3	96
HLD	55	0	4	96
TAP	55	192	2
TAP	55	192	5
STR	56	0	3
SI_	56	0	3	96	288	0
STR	56	0	4
SI_	56	0	4	96	288	7
BRK	57	192	1
BRK	57	192	6
HLD	58	0	1	192
HLD	58	192	2	192
TAP	59	0	3
TAP	59	96	3
TAP	59	192	3
TAP	59	192	4
HLD	60	0	6	192
HLD	60	192	5	192
TAP	61	0	4
TAP	61	96	4
TAP	61	192	3
TAP	61	192	4
HLD	62	0	1	192
HLD	62	192	2	192
HLD	63	0	3	192
HLD	63	192	4	192
HLD	64	0	5	192
HLD	64	192	6	192
TAP	65	0	7
BRK	65	192	0
BRK	65	192	6
TAP	66	0	1
TAP	66	96	1
TAP	66	192	2
TAP	66	192	3
TAP	66	288	3
TAP	66	288	4
TAP	67	0	5
TAP	67	96	5
TAP	67	192	6
TAP	67	192	7
TAP	67	288	6
TAP	67	288	7
TAP	68	0	0
TAP	68	48	0
TAP	68	96	0
TAP	68	192	1
TAP	68	192	7
TAP	68	288	1
TAP	68	288	7
TAP	69	0	2
TAP	69	48	2
TAP	69	96	2
XTP	69	192	3
XTP	69	192	5
TAP	70	0	6
TAP	70	96	6
TAP	70	192	4
TAP	70	192	5
TAP	70	288	3
TAP	70	288	4
TAP	71	0	2
TAP	71	96	2
TAP	71	192	0
TAP	71	192	1
TAP	71	288	0
TAP	71	288	1
TAP	72	0	7
TAP	72	48	7
TAP	72	96	7
TAP	72	192	0
TAP	72	240	0
TAP	72	288	0
TAP	73	0	1
TAP	73	0	7
TAP	73	96	2
TAP	73	96	6
XTP	73	192	3
XTP	73	192	5
STR	74	0	4
SI_	74	0	4	96	288	7
TAP	75	192	0
STR	76	0	0
SI_	76	0	0	96	288	3
XTP	77	192	4
XTP	77	192	5
STR	78	0	6
SSR	78	0	6	96	360	2
TAP	79	192	1
TAP	80	0	7
TAP	80	96	7
TAP	80	192	6
TAP	80	288	6
TAP	81	0	5
TAP	81	96	5
TAP	81	192	3
TAP	81	192	4
TAP	81	288	3
TAP	81	288	4
TAP	82	0	2
TAP	82	96	2
TAP	82	192	1
TAP	82	288	1
HLD	83	0	0	96
HLD	83	0	1	96
BRK	83	192	2
BRK	83	192	7
HLD	84	0	6	96
HLD	84	0	7	96
BRK	84	192	0
BRK	84	192	5
THO	85	0	0	384	C	1	L1
XTP	86	192	0
XTP	86	192	7
TAP	87	0	0
TAP	87	0	7
TAP	87	96	0
TAP	87	96	7
TAP	87	192	1
TAP	87	192	6
TAP	87	288	1
TAP	87	288	6
TAP	88	0	2
TAP	88	0	5
TAP	88	96	2
TAP	88	96	5
XTP	88	192	3
XTP	88	192	4
TAP	89	0	5
TAP	89	96	4
TAP	89	96	6
TAP	89	192	2
TAP	89	288	1
TAP	89	288	3
TAP	90	0	0
TAP	90	96	1
TAP	90	96	7
TAP	90	192	2
TAP	90	192	6
HLD	91	0	6	96
TAP	91	96	7
HLD	91	192	1	96
TAP	91	288	0
TAP	92	0	0
TAP	92	0	7
TAP	92	96	1
TAP	92	96	6
XTP	92	192	2
XTP	92	192	5
XTP	93	0	6
XTP	93	0	7
XTP	93	96	6
XTP	93	96	7
XTP	93	192	0
XTP	93	192	1
XTP	93	288	0
XTP	93	288	1
TAP	94	0	2
TAP	94	0	3
TAP	94	96	1
TAP	94	96	4
TAP	94	192	0
TAP	94	192	5
HLD	95	0	6	96
TAP	95	96	4
HLD	95	192	1	96
TAP	95	288	3
TAP	96	0	3
TAP	96	0	4
TAP	96	96	2
TAP	96	96	5
XTP	96	192	1
XTP	96	192	6
XTP	97	0	0
XTP	97	0	1
XTP	97	96	0
XTP	97	96	7
XTP	97	192	6
XTP	97	192	7
XTP	97	288	0
XTP	97	288	7
TAP	98	0	1
TAP	98	0	6
TAP	98	96	2
TAP	98	96	5
XTP	98	192	3
XTP	98	192	4
STR	99	0	3
SCL	99	0	3	96	288	0
STR	99	0	4
SCR	99	0	4	96	288	7
XTP	100	192	1
XTP	100	192	6
STR	101	0	6
SSR	101	0	6	96	480	2

T_REC_TAP	194
T_REC_BRK	11
T_REC_XTP	77
T_REC_HLD	36
T_REC_XHO	0
T_REC_STR	14
T_REC_BST	0
T_REC_XST	0
T_REC_TTP	22
T_REC_THO	2
T_REC_SLD	14
T_REC_ALL	370
T_NUM_TAP	307
T_NUM_BRK	11
T_NUM_HLD	38
T_NUM_SLD	14
T_NUM_ALL	370
T_JUDGE_TAP	318
T_JUDGE_HLD	136
T_JUDGE_SLD	14
T_JUDGE_ALL	468
TTM_EACHPAIRS	112
TTM_SCR_TAP	153500
TTM_SCR_BRK	28600
TTM_SCR_HLD	38000
TTM_SCR_SLD	21000
TTM_SCR_ALL	241100
TTM_SCR_S	232800
TTM_SCR_SS	240000
TTM_RAT_ACV	10045

