VERSION	0.00.00	1.03.00
FES_MODE	0
BPM_DEF	183.000	183.000	183.000	183.000
MET_DEF	4	4
RESOLUTION	384
CLK_DEF	384
COMPATIBLE_CODE	MA2

BPM	0	0	183.000
MET	0	0	4	4

TAP	6	0	3
TAP	7	0	3
TAP	8	0	4
TAP	9	0	4
TAP	10	0	3
TAP	10	192	3
TAP	11	0	3
TAP	12	0	4
TAP	12	192	4
BRK	13	0	4
TAP	14	0	3
TAP	15	0	3
TAP	16	0	2
TAP	17	0	2
HLD	18	0	1	384
STR	20	0	0
SI_	20	0	0	96	288	3
TAP	22	0	4
TAP	23	0	4
TAP	24	0	5
TAP	25	0	5
HLD	26	0	6	384
STR	28	0	7
SI_	28	0	7	96	288	3
TTP	30	0	2	B	0	L1
TTP	31	0	3	B	0	L1
TTP	32	0	4	B	0	L1
TTP	33	0	5	B	0	L1
TTP	34	0	6	B	0	L1
TTP	35	0	7	B	0	L1
TTP	36	0	0	B	0	L1
TTP	36	0	1	B	0	L1
TTP	37	0	6	B	0	L1
TTP	37	0	7	B	0	L1
THO	38	0	0	384	C	1	L1
TAP	40	0	0
TAP	40	96	0
TAP	40	192	0
TAP	41	0	1
TAP	41	96	1
TAP	41	192	1
TAP	42	0	2
TAP	42	96	2
TAP	42	192	2
HLD	43	0	2	192
HLD	43	0	3	192
TAP	44	0	4
TAP	44	96	4
TAP	44	192	4
TAP	45	0	5
TAP	45	96	5
TAP	45	192	5
TAP	46	0	6
TAP	46	96	6
TAP	46	192	6
TAP	47	0	6
TAP	47	0	7
BRK	47	192	6
BRK	47	192	7
TAP	48	0	7
TAP	48	96	7
TAP	48	192	7
TAP	49	0	6
TAP	49	96	6
TAP	49	192	6
TAP	50	0	5
TAP	50	96	5
TAP	50	192	5
HLD	51	0	4	192
HLD	51	0	5	192
TAP	52	0	3
TAP	52	96	3
TAP	52	192	3
TAP	53	0	2
TAP	53	96	2
TAP	53	192	2
TAP	54	0	1
TAP	54	96	1
TAP	54	192	1
TAP	55	0	0
TAP	55	0	1
TAP	55	192	0
TAP	55	192	1
HLD	56	0	0	384
HLD	56	0	7	384
XTP	57	192	0
XTP	57	192	7
TAP	58	0	1
TAP	58	192	1
TAP	59	0	2
TAP	59	192	2
TAP	60	0	3
TAP	60	192	3
TAP	61	0	4
TAP	61	96	4
TAP	61	192	4
TAP	62	0	5
TAP	62	192	5
TAP	63	0	6
TAP	63	192	6
TAP	64	0	7
TAP	64	192	7
TAP	65	0	0
TAP	65	96	0
BRK	65	192	0
STR	66	0	7
SI_	66	0	7	96	288	3
TAP	68	0	2
TAP	68	192	2
TAP	69	0	1
TAP	69	96	1
TAP	69	192	1
STR	70	0	0
SI_	70	0	0	96	288	4
TAP	72	0	5
TAP	72	192	5
TAP	73	0	6
TAP	73	96	6
TAP	73	192	6
TTP	74	0	5	B	0	L1
TTP	75	0	4	B	0	L1
TTP	76	0	3	B	0	L1
TTP	77	0	2	B	0	L1
TTP	78	0	1	B	0	L1
TTP	79	0	0	B	0	L1
TTP	80	0	6	B	0	L1
TTP	80	0	7	B	0	L1
TTP	81	0	0	B	0	L1
TTP	81	0	1	B	0	L1
THO	82	0	0	384	C	0	L1
TTP	84	0	0	C	1	L1
TTP	84	0	1	B	0	L1
TTP	84	0	6	B	0	L1
XHO	85	0	0	192
XHO	85	0	7	192
BRK	86	0	0
BRK	86	0	7
TAP	87	0	1
TAP	87	96	1
TAP	87	192	1
HLD	88	0	2	192
HLD	88	0	3	192
TAP	89	0	3
TAP	89	96	3
TAP	89	192	3
TAP	90	0	4
TAP	90	96	4
TAP	90	192	4
TAP	91	0	5
TAP	91	96	5
TAP	91	192	5
TAP	92	0	4
TAP	92	0	5
BRK	92	192	4
BRK	92	192	5
TAP	93	0	6
TAP	93	96	6
TAP	93	192	6
TAP	94	0	5
TAP	94	96	5
TAP	94	192	5
TAP	95	0	4
TAP	95	96	4
TAP	95	192	4
HLD	96	0	4	192
HLD	96	0	5	192
TAP	97	0	4
TAP	97	96	4
TAP	97	192	4
TAP	98	0	3
TAP	98	96	3
TAP	98	192	3
TAP	99	0	2
TAP	99	96	2
TAP	99	192	2
TAP	100	0	2
TAP	100	0	3
TAP	100	192	2
TAP	100	192	3
HLD	101	0	3	192
HLD	101	0	4	192
TAP	102	0	3
TAP	102	96	4
TAP	102	192	3

T_REC_TAP	125
T_REC_BRK	8
T_REC_XTP	2
T_REC_HLD	14
T_REC_XHO	2
T_REC_STR	4
T_REC_BST	0
T_REC_XST	0
T_REC_TTP	23
T_REC_THO	2
T_REC_SLD	4
T_REC_ALL	184
T_NUM_TAP	154
T_NUM_BRK	8
T_NUM_HLD	18
T_NUM_SLD	4
T_NUM_ALL	184
T_JUDGE_TAP	162
T_JUDGE_HLD	96
T_JUDGE_SLD	4
T_JUDGE_ALL	262
TTM_EACHPAIRS	17
TTM_SCR_TAP	77000
TTM_SCR_BRK	20800
TTM_SCR_HLD	18000
TTM_SCR_SLD	6000
TTM_SCR_ALL	121800
TTM_SCR_S	117400
TTM_SCR_SS	121000
TTM_RAT_ACV	10066

