VERSION	0.00.00	1.03.00
FES_MODE	0
BPM_DEF	180.000	180.000	180.000	180.000
MET_DEF	4	4
RESOLUTION	384
CLK_DEF	384
COMPATIBLE_CODE	MA2

BPM	0	0	180.000
MET	0	0	4	4
MET	21	0	8	7
MET	21	336	4	4
MET	22	336	8	7
MET	23	288	4	4
MET	24	288	8	7
MET	25	240	4	4
MET	26	240	8	7
MET	27	192	4	4
MET	31	192	4	5
MET	32	288	8	3
MET	33	48	4	4
MET	35	48	4	7
MET	36	336	4	4
MET	38	336	4	7
MET	40	240	4	4
MET	42	240	4	3
MET	43	144	4	4
MET	88	144	4	4
MET	89	144	4	3
MET	90	48	4	4
MET	91	48	4	3
MET	91	336	4	4
MET	92	336	4	3
MET	93	240	4	4
MET	94	240	4	3
MET	95	144	4	4

TTP	1	0	0	B	0	M1
TTP	1	0	0	C	1	M1
TTP	1	0	3	B	0	M1
TTP	1	0	4	B	0	M1
TTP	1	0	7	B	0	M1
TAP	1	336	3
TAP	1	360	4
TAP	2	0	3
TAP	2	144	2
TAP	2	144	5
TAP	2	288	1
TAP	2	288	4
BRK	3	0	0
TAP	3	288	2
TAP	3	288	5
TAP	4	0	3
TAP	4	0	5
TAP	4	48	2
TAP	4	96	2
TAP	4	96	4
TAP	4	144	5
TAP	4	192	3
TAP	4	192	5
TAP	4	240	2
TAP	4	264	3
TAP	4	288	2
TAP	4	336	0
XTP	5	0	1
XTP	5	0	7
TAP	5	96	2
TAP	5	120	3
TAP	5	144	2
TAP	5	192	6
TAP	5	240	2
TAP	5	264	3
TAP	5	288	2
TAP	5	336	6
TAP	6	0	3
TAP	6	48	3
TAP	6	48	4
TAP	6	96	5
TAP	6	144	3
TAP	6	144	4
TAP	6	192	2
TAP	6	240	5
TAP	6	264	4
TAP	6	288	5
TAP	6	312	4
TAP	6	336	6
TAP	6	360	0
XTP	7	0	7
TAP	7	48	2
TAP	7	72	3
TAP	7	96	2
TAP	7	120	3
TAP	7	144	1
TAP	7	192	5
TAP	7	216	4
TAP	7	240	5
TAP	7	264	4
TAP	7	288	6
TAP	7	312	3
TAP	7	336	5
TAP	7	360	4
HLD	8	0	7	336
TAP	9	0	3
TAP	9	0	5
TAP	9	48	6
TAP	9	96	2
TAP	9	96	4
TAP	9	144	1
TAP	9	192	3
TAP	9	192	5
TAP	9	240	0
TAP	9	264	7
TAP	9	288	0
XTP	9	336	1
XTP	9	336	6
TTP	10	48	5	B	0	M1
TTP	10	48	5	E	0	M1
TAP	10	96	3
TAP	10	144	4
TTP	10	192	2	B	0	M1
TTP	10	192	2	E	0	M1
TAP	10	240	4
TAP	10	288	3
TTP	10	336	6	B	0	M1
TTP	10	336	6	E	0	M1
TAP	11	0	3
TAP	11	48	4
TTP	11	96	1	B	0	M1
TTP	11	96	1	E	0	M1
TAP	11	144	4
TAP	11	192	5
STR	11	240	4
SI_	11	240	4	96	48	7
TAP	11	240	5
TAP	11	336	0
TTP	12	48	2	B	0	M1
TTP	12	48	3	E	0	M1
TAP	12	96	4
TAP	12	144	3
TTP	12	192	5	B	0	M1
TTP	12	192	6	E	0	M1
TAP	12	240	3
TAP	12	288	4
TTP	12	336	1	B	0	M1
TTP	12	336	2	E	0	M1
TAP	13	0	4
TAP	13	48	3
TTP	13	96	6	B	0	M1
TTP	13	96	7	E	0	M1
TAP	13	144	3
TAP	13	192	4
BRK	13	240	0
TAP	13	336	2
TAP	13	336	5
TTP	14	48	1	B	0	M1
TTP	14	48	1	E	0	M1
TAP	14	96	7
TAP	14	144	0
TTP	14	192	6	B	0	M1
TTP	14	192	6	E	0	M1
TAP	14	240	0
TAP	14	288	7
TTP	14	336	2	B	0	M1
TTP	14	336	2	E	0	M1
TAP	15	0	7
TAP	15	48	0
TTP	15	96	5	B	0	M1
TTP	15	96	5	E	0	M1
TAP	15	144	0
TAP	15	192	1
STR	15	240	0
SI_	15	240	0	96	48	3
TAP	15	240	1
TAP	15	336	4
TTP	16	48	6	B	0	M1
TTP	16	48	7	E	0	M1
TAP	16	96	0
TAP	16	144	7
TTP	16	192	1	B	0	M1
TTP	16	192	2	E	0	M1
TAP	16	240	7
TAP	16	288	0
TTP	16	336	5	B	0	M1
TTP	16	336	6	E	0	M1
TAP	17	0	0
TAP	17	48	7
TTP	17	96	2	B	0	M1
TTP	17	96	3	E	0	M1
TAP	17	144	7
TAP	17	192	0
STR	17	240	1
SI_	17	240	1	96	48	4
STR	17	240	6
SI_	17	240	6	96	48	3
XTP	17	336	1
XTP	17	336	6
TAP	18	48	2
TAP	18	72	3
TAP	18	96	2
TAP	18	144	1
TAP	18	144	4
TAP	18	192	5
TAP	18	240	3
TAP	18	240	5
XTP	18	336	2
XTP	18	336	6
TAP	19	48	5
TAP	19	72	4
TAP	19	96	5
TAP	19	144	3
TAP	19	144	6
TAP	19	192	2
TAP	19	240	1
TAP	19	240	5
XST	20	0	1
SI_	20	0	1	96	48	5
XTP	20	0	6
TAP	20	96	7
STR	20	144	7
SCL	20	144	7	96	144	2
TAP	20	240	1
TAP	20	288	1
TAP	21	0	0
TAP	21	96	0
TAP	21	192	1
TAP	21	192	3
TAP	21	288	3
TAP	21	288	5
STR	22	0	4
SI_	22	0	4	96	48	0
TAP	22	0	6
TAP	22	96	7
STR	22	144	7
SI_	22	144	7	96	48	5
TAP	22	240	0
STR	22	288	0
SCR	22	288	0	96	192	5
TAP	23	0	6
TAP	23	48	6
TAP	23	144	7
HLD	23	192	7	96
TAP	23	336	4
TAP	23	360	3
HLD	24	0	2	96
TAP	24	48	4
TAP	24	96	5
HLD	24	144	6	96
TAP	24	192	4
TAP	24	240	2
HLD	24	288	1	96
TAP	24	336	3
STR	25	0	4
SI_	25	0	4	96	48	7
TAP	25	96	0
STR	25	144	0
SI_	25	144	0	96	48	4
TAP	25	240	5
STR	25	288	5
SI_	25	288	5	96	48	1
TAP	26	0	2
STR	26	48	2
SI_	26	48	2	96	48	6
STR	26	144	4
SCR	26	144	4	96	240	3
TAP	26	240	0
STR	26	288	0
SUR	26	288	0	96	96	4
XTP	27	192	1
XST	27	192	6
SI_	27	192	6	96	48	2
TAP	27	288	0
STR	27	336	0
SCR	27	336	0	96	144	5
TAP	28	48	6
TAP	28	96	6
TAP	28	192	7
TAP	28	288	7
TAP	29	0	4
TAP	29	0	6
TAP	29	96	2
TAP	29	96	4
TAP	29	192	1
STR	29	192	3
SI_	29	192	3	96	48	7
TAP	29	288	0
STR	29	336	0
SI_	29	336	0	96	48	2
TAP	30	48	7
STR	30	96	7
SCL	30	96	7	96	192	2
TAP	30	192	1
TAP	30	240	1
TAP	30	336	0
TAP	31	0	0
TAP	31	96	2
TAP	31	96	6
XTP	31	192	0
XTP	31	192	7
TAP	31	216	6
TAP	31	240	5
TAP	31	264	4
XTP	31	288	1
TAP	31	312	2
TAP	31	336	3
TAP	31	360	4
XTP	32	0	0
TAP	32	24	7
TAP	32	48	6
TAP	32	72	5
XTP	32	96	0
TAP	32	120	1
TAP	32	144	2
TAP	32	168	3
XTP	32	192	6
TAP	32	216	5
TAP	32	240	4
TAP	32	264	3
BRK	32	288	0
TAP	32	312	7
TAP	32	336	0
TAP	32	360	7
TAP	33	0	0
TAP	33	24	7
XTP	33	48	0
TAP	33	64	1
TAP	33	80	2
TAP	33	96	3
TAP	33	112	4
TAP	33	128	5
XTP	33	144	0
TAP	33	160	1
TAP	33	176	2
TAP	33	192	3
TAP	33	208	4
TAP	33	224	5
XTP	33	240	0
TAP	33	256	1
TAP	33	272	2
TAP	33	288	3
TAP	33	304	4
TAP	33	320	5
XTP	33	336	0
TAP	33	352	1
TAP	33	368	2
TAP	34	0	3
TAP	34	16	4
TAP	34	32	5
STR	34	48	1
SCL	34	48	1	96	192	4
STR	34	48	6
SCR	34	48	6	96	192	3
BRK	34	144	1
BRK	34	144	6
TAP	35	48	0
TAP	35	96	3
TAP	35	144	2
TAP	35	192	7
TAP	35	240	4
TAP	35	288	5
TAP	35	336	0
TAP	36	0	4
TAP	36	24	3
TAP	36	48	6
TAP	36	96	1
TAP	36	144	3
TAP	36	192	0
TAP	36	240	6
TAP	36	240	7
TAP	36	288	5
TAP	36	336	2
TAP	36	336	4
TAP	37	0	1
TAP	37	48	0
TAP	37	48	7
TAP	37	96	6
TAP	37	144	3
TAP	37	168	4
TAP	37	192	1
TAP	37	240	7
TAP	37	288	4
TAP	37	336	6
TAP	38	0	0
TAP	38	48	3
TAP	38	96	1
XTP	38	144	2
XTP	38	144	4
TAP	38	192	3
TAP	38	216	4
TAP	38	240	3
TAP	38	264	5
TAP	38	288	3
TAP	38	312	6
TAP	38	336	3
TAP	38	360	7
TAP	39	0	3
TAP	39	48	5
TAP	39	96	0
TAP	39	120	7
TAP	39	144	2
TAP	39	192	5
TAP	39	216	4
TAP	39	240	7
TAP	39	288	0
TAP	39	336	3
TAP	40	0	1
TAP	40	24	0
TAP	40	48	3
TAP	40	96	5
TAP	40	144	4
TAP	40	192	6
TAP	40	240	2
TAP	40	264	3
TAP	40	288	0
TAP	40	336	3
TAP	41	0	1
TAP	41	48	6
TAP	41	72	7
TAP	41	96	4
XTP	41	144	1
TAP	41	176	1
TAP	41	208	1
XTP	41	240	3
TAP	41	272	3
TAP	41	304	3
XTP	41	336	4
TAP	41	368	4
TAP	42	16	4
XTP	42	48	6
TAP	42	80	6
TAP	42	112	6
XTP	42	144	4
TAP	42	176	4
TAP	42	208	4
XTP	42	240	3
TAP	42	272	3
TAP	42	304	3
XTP	42	336	1
TAP	42	368	1
TAP	43	16	1
BST	43	48	7
SI_	43	48	7	96	48	2
SI_	43	48	7	96	48	4
TAP	43	64	0
TAP	43	80	7
TAP	43	96	0
XTP	43	144	7
TAP	43	240	0
TAP	43	288	1
TAP	43	288	7
TAP	43	336	2
TAP	43	336	6
TAP	44	0	5
TAP	44	24	4
TAP	44	72	1
TAP	44	96	0
TAP	44	144	3
TAP	44	192	2
TAP	44	192	4
TAP	44	240	6
TAP	44	264	7
TAP	44	288	5
TAP	44	336	0
TAP	44	336	4
TAP	45	0	2
TAP	45	24	3
TAP	45	72	6
TAP	45	96	7
TAP	45	144	3
TAP	45	192	2
TAP	45	192	4
STR	45	240	0
SCR	45	240	0	96	48	3
TAP	45	288	7
TAP	45	336	6
STR	46	0	5
SCR	46	0	5	96	48	0
TAP	46	48	4
TAP	46	96	3
STR	46	144	2
SCR	46	144	2	96	48	5
TAP	46	192	1
TAP	46	240	0
TAP	46	288	0
TAP	46	336	0
TAP	46	336	7
TAP	47	0	2
TAP	47	0	5
TAP	47	48	3
TAP	47	48	4
TAP	47	96	1
TAP	47	96	6
STR	47	144	7
SCL	47	144	7	96	72	4
STR	47	216	4
SV_	47	216	4	96	72	7
TAP	47	288	1
STR	47	336	1
SI_	47	336	1	96	48	5
TAP	48	0	0
XTP	48	48	1
XTP	48	48	4
STR	48	144	7
SI_	48	144	7	96	48	2
SI_	48	144	7	96	48	4
XTP	48	240	7
TAP	48	336	1
TAP	48	336	3
TAP	49	0	0
TAP	49	48	4
TAP	49	48	6
TAP	49	96	7
XHO	49	144	7	336
TAP	49	192	4
TAP	49	240	4
TAP	49	288	0
TAP	49	336	3
TAP	50	0	0
TAP	50	48	4
TAP	50	96	0
XHO	50	144	0	192
TAP	50	192	3
TAP	50	240	3
TAP	50	288	7
TAP	50	336	4
TAP	51	0	3
TAP	51	0	5
TAP	51	48	2
TAP	51	72	3
TAP	51	96	2
TAP	51	120	4
XTP	51	144	3
TAP	51	168	4
TAP	51	192	3
TAP	51	216	4
TAP	51	240	3
TAP	51	264	4
TAP	51	288	3
TAP	51	312	4
XTP	51	336	1
TAP	51	360	4
TAP	52	0	3
XTP	52	24	6
TAP	52	48	3
TAP	52	72	4
TAP	52	96	3
TAP	52	120	4
XTP	52	144	1
TAP	52	168	3
TAP	52	192	2
TAP	52	216	3
TAP	52	240	2
TAP	52	264	3
TAP	52	288	2
TAP	52	312	3
XTP	52	336	1
TAP	52	360	3
TAP	53	0	2
TAP	53	24	3
TAP	53	48	2
TAP	53	72	3
TAP	53	96	2
TAP	53	120	3
XTP	53	144	1
TAP	53	168	4
TAP	53	192	3
TAP	53	216	4
TAP	53	240	3
TAP	53	264	4
TAP	53	288	3
TAP	53	312	4
XTP	53	336	2
TAP	53	360	5
TAP	54	0	4
TAP	54	24	5
TAP	54	48	4
TAP	54	72	5
TAP	54	96	4
TAP	54	120	5
XTP	54	144	3
TAP	54	168	6
TAP	54	192	5
TAP	54	216	6
TAP	54	240	5
TAP	54	264	6
TAP	54	288	5
TAP	54	312	6
TAP	54	336	5
TAP	54	360	6
TAP	55	0	5
TAP	55	24	6
XTP	55	48	3
TAP	55	72	4
TAP	55	96	3
TAP	55	120	4
STR	55	144	0
SCR	55	144	0	96	72	3
STR	55	216	3
SV_	55	216	3	96	72	0
TAP	55	288	6
STR	55	336	6
SI_	55	336	6	96	48	2
TAP	56	0	7
XTP	56	48	3
XTP	56	48	6
STR	56	144	0
SI_	56	144	0	96	48	3
SI_	56	144	0	96	48	5
XTP	56	240	0
XST	56	336	2
SI_	56	336	2	96	48	7
XST	56	336	4
SI_	56	336	4	96	48	7
XTP	57	48	2
XTP	57	48	4
XTP	57	144	0
XTP	57	144	7
XTP	57	216	4
XTP	57	216	6
XTP	57	288	3
XTP	57	288	4
XTP	57	336	0
XTP	57	336	7
XTP	58	24	1
XTP	58	24	3
XTP	58	96	3
XTP	58	96	4
BRK	58	192	0
BRK	58	192	7
BRK	58	240	0
BRK	58	240	7
TAP	58	288	6
TAP	58	336	4
TAP	58	336	5
TAP	59	0	3
TAP	59	48	2
TAP	59	48	4
TAP	59	96	1
TAP	59	144	0
STR	59	144	7
SCL	59	144	7	96	1056	0
HLD	63	144	7	1056
TAP	65	240	2
TAP	65	336	4
STR	66	48	3
SLR	66	48	3	96	240	2
TAP	67	144	2
TAP	67	240	2
TAP	67	336	2
TAP	67	336	3
TAP	68	48	2
TAP	68	48	4
TAP	68	144	2
HLD	68	144	5	96
TAP	68	240	2
TAP	68	336	2
HLD	68	336	7	96
TAP	69	48	2
TAP	69	144	2
TAP	69	144	5
TAP	69	240	5
TAP	69	336	5
TAP	70	0	4
TAP	70	48	5
HLD	70	144	2	96
TAP	70	144	5
TAP	70	240	5
TAP	70	336	2
TAP	70	360	3
TAP	71	0	2
TAP	71	24	3
TTP	71	48	1	E	0	M1
TTP	71	72	0	B	0	M1
TTP	71	96	7	B	0	M1
TAP	71	144	5
TAP	71	168	4
TAP	71	192	5
TAP	71	216	3
TTP	71	240	7	E	0	M1
TTP	71	264	7	B	0	M1
TTP	71	288	0	B	0	M1
TAP	71	336	2
TAP	71	360	3
TAP	72	0	2
TAP	72	24	4
TTP	72	48	1	E	0	M1
TTP	72	72	0	B	0	M1
TTP	72	96	7	B	0	M1
TAP	72	144	5
TAP	72	168	3
TAP	72	192	4
TAP	72	216	2
TTP	72	240	7	E	0	M1
TTP	72	264	7	B	0	M1
TTP	72	288	0	B	0	M1
TAP	72	336	2
TAP	72	360	4
TAP	73	0	3
TAP	73	24	5
XTP	73	48	3
XTP	73	144	0
TTP	73	144	5	E	0	M1
TAP	73	168	1
TAP	73	192	2
TAP	73	216	3
XTP	73	240	0
TAP	73	264	1
TAP	73	288	2
TAP	73	312	3
XTP	73	336	0
TTP	73	336	5	B	0	M1
TAP	73	360	1
TAP	74	0	2
TAP	74	24	3
XTP	74	48	0
TAP	74	72	1
TAP	74	96	2
TAP	74	120	3
XTP	74	144	0
TTP	74	144	6	B	0	M1
TAP	74	168	1
TAP	74	192	2
TAP	74	216	3
XTP	74	240	0
TAP	74	264	1
TAP	74	288	2
TAP	74	312	3
XTP	74	336	0
TTP	74	336	7	E	0	M1
TAP	74	360	1
TAP	75	0	2
TAP	75	24	3
XTP	75	48	0
TAP	75	72	1
TAP	75	96	2
TAP	75	120	3
XTP	75	144	0
TTP	75	144	0	C	1	M1
BRK	75	336	2
BRK	75	336	6
TAP	76	48	1
STR	76	48	5
SSR	76	48	5	96	96	1
TAP	76	96	1
TAP	76	96	5
XTP	76	192	0
XTP	76	240	0
XTP	76	288	0
TAP	76	336	6
TAP	77	0	1
TAP	77	0	7
TAP	77	48	2
TAP	77	72	3
TAP	77	96	2
TAP	77	120	3
TAP	77	144	1
TAP	77	192	5
TAP	77	216	4
TAP	77	264	1
TAP	77	288	0
TAP	77	336	2
TAP	77	360	3
TAP	78	24	6
TAP	78	48	7
TAP	78	96	4
TAP	78	144	2
TAP	78	144	5
TAP	78	192	2
TAP	78	240	3
STR	78	288	2
SI_	78	288	2	96	48	7
TAP	78	288	3
TAP	78	336	1
TAP	79	0	3
TAP	79	96	4
TAP	79	144	2
TAP	79	144	5
TAP	79	192	5
TAP	79	240	4
TAP	79	288	4
STR	79	288	5
SI_	79	288	5	96	48	0
TAP	79	336	6
TAP	80	0	4
TAP	80	96	1
TAP	80	96	3
TAP	80	144	0
TAP	80	168	4
TAP	80	192	4
TAP	80	216	1
TAP	80	240	5
TAP	80	264	5
TAP	80	288	2
TAP	80	312	6
TAP	80	336	6
TAP	80	360	3
TAP	81	0	7
TAP	81	24	7
TAP	81	48	4
TAP	81	72	6
TAP	81	96	6
TAP	81	120	3
TAP	81	144	5
TAP	81	168	1
TAP	81	192	4
TAP	81	216	2
TAP	81	240	6
TAP	81	264	4
TAP	81	288	5
TAP	81	312	1
TAP	81	336	3
TAP	81	360	2
STR	82	0	7
SSR	82	0	7	96	96	3
TAP	82	24	4
TAP	82	48	5
TAP	82	72	2
XTP	82	96	7
XTP	82	192	1
XTP	82	240	1
XTP	82	288	1
HLD	82	336	2	96
TAP	83	0	3
TAP	83	48	6
TAP	83	96	2
TAP	83	96	4
HLD	83	144	5	96
TAP	83	192	4
TAP	83	240	1
TAP	83	288	3
TAP	83	288	5
HLD	83	336	2	96
TAP	84	0	3
TAP	84	48	4
BRK	84	96	6
TAP	84	120	2
TAP	84	144	2
TAP	84	168	5
TAP	84	192	1
TAP	84	216	1
BRK	84	240	4
TAP	84	264	0
TAP	84	288	0
TAP	84	312	3
TAP	84	336	2
TAP	84	360	2
XTP	85	0	6
TAP	85	24	4
TAP	85	48	5
TAP	85	72	3
TAP	85	96	4
TAP	85	120	2
TAP	85	144	3
TAP	85	168	1
BRK	85	192	7
TAP	85	208	6
TAP	85	224	5
XTP	85	240	0
TAP	85	256	1
TAP	85	272	2
XTP	85	288	6
TAP	85	304	5
TAP	85	320	4
XTP	85	336	1
TAP	85	352	2
TAP	85	368	3
XTP	86	0	7
TAP	86	12	6
TAP	86	24	5
TAP	86	36	4
TAP	86	48	3
TAP	86	60	2
TAP	86	72	1
TAP	86	84	0
XTP	86	96	3
XTP	86	96	7
BRK	86	144	1
TAP	86	168	1
TAP	86	192	3
TAP	86	216	3
TAP	86	240	5
TAP	86	264	5
TAP	86	288	7
TAP	86	312	7
TAP	86	336	1
TAP	86	360	4
TAP	87	0	3
TAP	87	24	6
TAP	87	48	3
TAP	87	72	4
TAP	87	96	0
TAP	87	120	5
TAP	87	144	2
TAP	87	168	7
STR	87	192	0
SCL	87	192	0	96	108	2
SUL	87	192	0	96	108	1
TAP	87	216	4
TAP	87	240	2
TAP	87	264	6
XTP	87	288	0
TAP	88	144	7
TAP	88	192	0
TAP	88	192	6
TAP	88	240	1
TAP	88	240	5
TAP	88	288	2
TAP	88	288	4
TAP	88	336	3
TAP	89	0	0
TAP	89	0	1
TAP	89	48	0
STR	89	48	1
SCR	89	48	1	96	48	4
TAP	89	96	2
STR	89	144	0
SCL	89	144	0	96	48	5
TAP	89	192	7
TAP	89	240	0
TAP	89	240	1
TAP	89	288	2
TAP	89	336	3
TAP	90	0	3
TAP	90	48	4
TAP	90	96	3
TAP	90	96	5
TAP	90	144	2
TAP	90	144	6
TAP	90	192	1
TAP	90	192	7
TAP	90	240	0
TAP	90	288	2
TAP	90	288	3
TAP	90	336	2
STR	90	336	3
SCR	90	336	3	96	48	6
TAP	91	0	4
STR	91	48	2
SCL	91	48	2	96	48	7
TAP	91	48	3
TAP	91	96	1
TAP	91	144	2
TAP	91	144	3
TAP	91	192	4
TAP	91	240	5
TAP	91	288	4
TAP	91	336	3
TAP	92	0	2
TAP	92	0	4
TAP	92	48	5
TAP	92	72	5
TAP	92	96	4
TAP	92	144	2
TAP	92	144	5
TAP	92	192	6
TAP	92	240	3
STR	92	240	7
SI_	92	240	7	96	48	5
TAP	92	288	3
XTP	92	336	2
XST	92	336	7
SI_	92	336	7	96	48	4
TAP	93	0	2
XTP	93	48	1
XST	93	48	7
SI_	93	48	7	96	48	3
TAP	93	96	1
XTP	93	144	0
XTP	93	144	7
TAP	93	192	0
TAP	93	240	7
TAP	93	288	0
TAP	93	288	6
TAP	93	336	1
TAP	93	360	1
TAP	94	0	0
TAP	94	48	1
TAP	94	48	5
TAP	94	96	2
STR	94	144	3
SI_	94	144	3	96	48	1
TAP	94	144	7
TAP	94	192	7
XST	94	240	3
SI_	94	240	3	96	48	0
XTP	94	240	6
TAP	94	288	6
XST	94	336	3
SI_	94	336	3	96	48	7
XTP	94	336	5
TAP	95	0	5
XTP	95	48	3
XTP	95	48	4
TAP	95	96	4
XTP	95	144	0
XTP	95	144	6
TAP	95	192	2
TAP	95	216	3
TAP	95	240	2
TAP	95	288	0
TAP	95	288	6
TAP	95	336	2
TAP	95	360	3
TAP	96	0	2
TAP	96	48	0
TAP	96	48	6
BRK	96	96	1
BRK	96	96	5
TAP	96	192	5
TAP	96	216	4
TAP	96	240	5
TAP	96	288	1
TAP	96	288	7
TAP	96	336	5
TAP	96	360	4
TAP	97	0	5
TAP	97	48	1
TAP	97	48	7
BRK	97	96	2
BRK	97	96	6
TAP	97	192	0
TAP	97	216	5
TAP	97	240	4
TAP	97	264	7
TAP	97	288	2
TAP	97	312	3
TAP	97	336	0
TAP	97	360	5
TAP	98	0	3
TAP	98	24	6
STR	98	48	0
SI_	98	48	0	96	48	4
TAP	98	72	4
TAP	98	96	2
TAP	98	120	5
BST	98	144	0
SCR	98	144	0	96	768	6
BRK	98	240	0

T_REC_TAP	703
T_REC_BRK	20
T_REC_XTP	95
T_REC_HLD	12
T_REC_XHO	2
T_REC_STR	45
T_REC_BST	2
T_REC_XST	8
T_REC_TTP	54
T_REC_THO	0
T_REC_SLD	59
T_REC_ALL	1000
T_NUM_TAP	905
T_NUM_BRK	22
T_NUM_HLD	14
T_NUM_SLD	59
T_NUM_ALL	1000
T_JUDGE_TAP	927
T_JUDGE_HLD	60
T_JUDGE_SLD	59
T_JUDGE_ALL	1046
TTM_EACHPAIRS	116
TTM_SCR_TAP	452500
TTM_SCR_BRK	57200
TTM_SCR_HLD	14000
TTM_SCR_SLD	88500
TTM_SCR_ALL	612200
TTM_SCR_S	591700
TTM_SCR_SS	610000
TTM_RAT_ACV	10036

