VERSION	0.00.00	1.03.00
FES_MODE	0
BPM_DEF	180.000	180.000	180.000	180.000
MET_DEF	4	4
RESOLUTION	384
CLK_DEF	384
COMPATIBLE_CODE	MA2

BPM	0	0	180.000
MET	0	0	4	4
MET	21	0	8	7
MET	21	336	4	4
MET	22	336	8	7
MET	23	288	4	4
MET	24	288	8	7
MET	25	240	4	4
MET	26	240	8	7
MET	27	192	4	4
MET	28	192	8	7
MET	29	144	4	4
MET	30	144	8	7
MET	31	96	4	4
MET	32	96	8	7
MET	33	48	4	4
MET	35	48	4	7
MET	36	336	4	4
MET	38	336	4	7
MET	40	240	4	4
MET	42	240	4	3
MET	43	144	4	4

XHO	1	0	3	336
XTP	1	0	4
TAP	1	336	5
TAP	2	0	5
TAP	2	144	4
TAP	2	288	3
XTP	3	0	2
XTP	3	0	5
TAP	3	96	3
TAP	3	144	3
TAP	3	192	4
TAP	3	240	4
TAP	3	288	3
TAP	3	336	3
XTP	4	0	2
XTP	4	0	4
XTP	4	96	3
XTP	4	96	5
TAP	4	192	4
TAP	4	240	3
TAP	4	288	2
TAP	4	288	5
TAP	5	0	3
TAP	5	0	4
TAP	5	96	5
TAP	5	144	5
TAP	5	240	4
TAP	5	288	4
TAP	6	0	3
TAP	6	48	3
TAP	6	144	2
TAP	6	192	2
TAP	6	288	1
TAP	6	288	4
TAP	7	0	3
TAP	7	0	5
TAP	7	48	3
TAP	7	48	5
TAP	7	144	2
TAP	7	144	4
TAP	7	192	2
TAP	7	192	4
TAP	7	288	3
TAP	7	288	6
TAP	8	0	1
HLD	8	0	4	384
TAP	9	0	3
TAP	9	96	3
TAP	9	96	4
TAP	9	192	3
TAP	9	240	4
TAP	9	288	3
BRK	9	336	2
BRK	9	336	5
TAP	10	96	3
TAP	10	96	4
TAP	10	192	5
TAP	10	240	5
TAP	10	288	4
TAP	11	0	2
TAP	11	48	2
TAP	11	96	3
TAP	11	192	5
TAP	11	240	5
TAP	11	288	4
HLD	11	336	6	144
TAP	12	48	5
TAP	12	96	5
TAP	12	192	2
TAP	12	240	2
TAP	12	288	3
TAP	13	0	5
TAP	13	48	5
TAP	13	96	4
TAP	13	192	1
TAP	13	192	3
BRK	13	240	1
BRK	13	240	3
HLD	13	336	2	144
TAP	14	48	3
TAP	14	96	3
TAP	14	192	6
TAP	14	240	6
TAP	14	288	4
TAP	15	0	1
TAP	15	48	1
TAP	15	96	3
TAP	15	192	5
TAP	15	240	5
TAP	15	288	4
HLD	15	336	6	144
TAP	16	48	5
TAP	16	96	5
TAP	16	192	1
TAP	16	240	1
TAP	16	288	2
TAP	17	0	3
TAP	17	0	5
TAP	17	96	2
TAP	17	96	4
TAP	17	192	5
TAP	17	240	4
TAP	17	288	3
HLD	17	336	2	144
TAP	18	48	0
TAP	18	96	0
TAP	18	192	1
TAP	18	192	7
TAP	18	240	1
TAP	18	240	7
TAP	18	336	4
HLD	18	336	5	144
TAP	19	48	7
TAP	19	96	7
TAP	19	192	1
TAP	19	192	6
BRK	19	240	1
BRK	19	240	6
TAP	20	0	4
TAP	20	0	5
TAP	20	96	3
TAP	20	96	6
HLD	20	144	3	336
STR	20	144	6
SSR	20	144	6	96	240	2
TAP	21	192	1
TAP	21	288	2
TAP	21	288	3
TAP	22	0	1
HLD	22	0	4	96
TAP	22	96	5
HLD	22	144	5	96
TAP	22	240	6
STR	22	288	6
SCR	22	288	6	96	144	3
HLD	23	192	1	96
TAP	23	288	4
TAP	23	336	4
TAP	24	0	3
TAP	24	48	5
TAP	24	96	2
TAP	24	144	2
TAP	24	192	3
TAP	24	240	1
TAP	24	288	6
TAP	24	336	6
TAP	25	0	4
TAP	25	0	5
TAP	25	96	2
TAP	25	144	2
TAP	25	144	3
TAP	25	240	1
TAP	25	288	0
TAP	25	288	1
TAP	26	0	6
TAP	26	48	6
TAP	26	48	7
TAP	26	144	0
HLD	26	144	5	96
TAP	26	240	4
TAP	26	288	5
BRK	26	336	3
BRK	26	336	6
TAP	27	192	2
TAP	27	192	3
TAP	27	288	1
TAP	27	288	4
STR	27	336	1
SSL	27	336	1	96	240	5
HLD	27	336	4	336
TAP	29	0	6
TAP	29	96	4
TAP	29	96	5
HLD	29	192	3	96
TAP	29	192	6
TAP	29	288	2
HLD	29	336	2	96
TAP	30	48	1
HLD	30	96	1	96
TAP	30	192	0
TAP	30	240	1
TAP	30	288	0
BRK	30	336	2
BRK	30	336	7
TAP	31	96	3
TAP	31	96	4
TAP	31	192	6
TAP	31	240	6
TAP	31	288	4
TAP	31	336	5
TAP	32	0	2
TAP	32	48	2
TAP	32	96	3
TAP	32	144	1
TAP	32	192	4
TAP	32	240	4
TAP	32	288	1
TAP	32	336	3
TAP	33	0	2
HLD	33	48	1	96
HLD	33	48	3	96
XTP	33	192	1
XTP	33	192	3
XTP	33	288	0
XTP	33	288	7
XTP	34	0	4
XTP	34	0	6
TTP	34	144	0	C	1	M1
TTP	34	144	1	B	0	M1
TTP	34	144	6	B	0	M1
HLD	35	48	2	96
TTP	35	144	3	B	0	M1
TTP	35	144	4	E	0	M1
HLD	35	240	1	96
TTP	35	336	0	B	0	M1
TTP	35	336	0	E	0	M1
HLD	36	48	2	96
TAP	36	144	3
TAP	36	240	1
TAP	36	240	4
HLD	36	336	5	96
TTP	37	48	4	B	0	M1
TTP	37	48	4	E	0	M1
HLD	37	144	6	96
TTP	37	240	0	E	0	M1
TTP	37	240	7	B	0	M1
HLD	37	336	5	96
TAP	38	48	4
TAP	38	144	3
STR	38	144	6
SCL	38	144	6	96	96	3
TAP	38	336	2
TAP	39	48	2
TAP	39	48	3
TAP	39	144	2
TAP	39	144	4
TAP	39	240	5
TAP	39	336	4
TAP	39	336	5
TAP	40	48	3
TAP	40	48	5
TAP	40	144	1
TAP	40	240	1
TAP	40	240	3
TAP	40	336	1
TAP	40	336	4
TAP	41	48	1
TAP	41	48	5
HLD	41	144	6	96
HLD	41	240	4	96
HLD	41	336	3	96
HLD	42	48	1	96
HLD	42	144	7	96
TAP	42	240	0
BRK	42	336	1
BRK	42	336	6
TAP	43	48	3
STR	43	48	4
SCR	43	48	4	96	96	0
TTP	43	144	0	C	1	M1
HLD	43	336	2	72
HLD	44	24	1	72
TAP	44	96	0
TAP	44	144	6
STR	44	144	7
SI_	44	144	7	96	48	3
TAP	44	336	2
STR	44	336	4
SI_	44	336	4	96	48	0
STR	45	144	1
SI_	45	144	1	96	48	4
TAP	45	240	6
STR	45	336	5
SI_	45	336	5	96	48	0
TAP	46	48	2
TAP	46	96	2
TAP	46	192	4
TAP	46	192	5
TAP	46	240	4
TAP	46	240	5
BRK	46	336	2
BRK	46	336	7
TAP	47	48	3
TAP	47	72	4
TAP	47	96	3
HLD	47	144	5	72
HLD	47	216	6	72
TAP	47	288	7
TAP	47	336	0
STR	47	336	7
SI_	47	336	7	96	48	3
STR	48	144	2
SI_	48	144	2	96	48	7
TAP	48	240	5
STR	48	336	6
SI_	48	336	6	96	48	3
TAP	49	48	1
TAP	49	96	1
TAP	49	192	0
TAP	49	192	4
BRK	49	240	0
BRK	49	240	4
TAP	49	336	5
TAP	50	0	4
TAP	50	48	5
XTP	50	96	3
XTP	50	96	6
TAP	50	192	1
TAP	50	240	1
TAP	50	288	3
TAP	50	336	2
TAP	51	0	4
STR	51	48	3
SCL	51	48	3	96	96	7
TAP	51	48	4
TTP	51	144	0	C	1	M1
HLD	51	336	5	72
HLD	52	24	6	72
TAP	52	96	7
STR	52	144	0
SI_	52	144	0	96	48	4
TAP	52	144	1
STR	52	336	3
SI_	52	336	3	96	48	7
TAP	52	336	5
TAP	53	144	6
TAP	53	192	6
TAP	53	240	4
TAP	53	288	5
TAP	53	336	2
TAP	54	0	2
TAP	54	48	3
TAP	54	96	1
STR	54	144	0
SCL	54	144	0	96	96	5
STR	54	144	1
SCR	54	144	1	96	96	4
BRK	55	48	3
BRK	55	48	6
HLD	55	144	1	72
HLD	55	216	2	72
TAP	55	288	3
STR	55	336	4
SI_	55	336	4	96	48	0
TAP	55	336	5
TAP	56	48	7
STR	56	144	6
SI_	56	144	6	96	48	4
STR	56	240	0
SI_	56	240	0	96	48	2
STR	56	336	7
SI_	56	336	7	96	48	3
TAP	57	48	0
XTP	57	144	0
XTP	57	144	4
XTP	57	216	1
XTP	57	216	5
XTP	57	288	2
XTP	57	288	6
XTP	57	336	3
XTP	57	336	7
XTP	58	24	2
XTP	58	24	6
BRK	58	96	1
BRK	58	96	5
TAP	58	192	0
TAP	58	240	0
TAP	58	288	7
TAP	58	336	1
TAP	59	0	3
STR	59	48	2
SCL	59	48	2	96	768	3
THO	59	144	0	768	C	0	M1
TAP	63	144	3
STR	63	144	4
SUL	63	144	4	96	528	3
TAP	65	144	3
TAP	65	192	4
TAP	65	336	3
TAP	65	336	4
TAP	66	96	4
TAP	66	144	3
TAP	66	192	4
TAP	66	288	3
TAP	66	336	3
TAP	67	0	4
TAP	67	48	4
TAP	67	144	5
TAP	67	192	4
TAP	67	240	5
TAP	67	336	5
TAP	68	0	3
TAP	68	48	5
HLD	68	144	4	96
TAP	68	144	5
TAP	68	240	5
HLD	68	336	2	192
TAP	68	336	5
TAP	69	48	5
TAP	69	144	5
TAP	69	240	5
TAP	69	288	2
TAP	69	336	5
TAP	70	0	3
TAP	70	48	5
TAP	70	96	4
HLD	70	144	5	96
TAP	70	240	4
TAP	70	336	4
TAP	70	336	5
TAP	71	48	3
TAP	71	48	4
TAP	71	144	2
TAP	71	192	3
TAP	71	240	2
TAP	71	288	3
TAP	71	336	2
TAP	72	0	3
TAP	72	48	2
TAP	72	144	2
TAP	72	192	5
TAP	72	240	2
TAP	72	336	2
TAP	73	0	4
TAP	73	48	2
HLD	73	144	2	72
HLD	73	216	3	72
HLD	73	288	4	72
HLD	73	360	5	72
TAP	74	48	4
HLD	74	144	6	72
HLD	74	216	4	72
HLD	74	288	3	72
HLD	74	360	1	72
TAP	75	48	0
BRK	75	144	2
BST	75	144	7
SSR	75	144	7	96	144	3
BRK	76	96	0
BRK	76	96	7
XST	76	144	0
SI_	76	144	0	96	48	4
XTP	76	144	7
TAP	77	0	5
TAP	77	24	4
TAP	77	48	5
TAP	77	72	4
TAP	77	96	5
STR	77	144	3
SSR	77	144	3	96	144	7
TAP	77	192	3
HLD	78	96	6	48
HLD	78	144	3	48
HLD	78	192	4	48
HLD	78	240	5	48
HLD	78	288	6	48
TAP	78	336	7
BRK	79	0	0
BRK	79	0	5
HLD	79	96	1	96
HLD	79	192	4	48
HLD	79	240	3	48
HLD	79	288	2	48
TAP	79	336	1
BRK	80	0	0
BRK	80	0	4
TAP	80	144	6
TAP	80	168	7
TAP	80	192	6
TAP	80	240	1
TAP	80	264	0
TAP	80	288	1
TAP	80	336	2
TAP	80	360	3
TAP	81	0	2
TAP	81	48	5
TAP	81	72	4
TAP	81	96	5
TAP	81	144	3
TAP	81	192	3
TAP	81	240	4
TAP	81	288	4
TAP	81	336	3
TAP	81	336	4
TAP	82	0	3
STR	82	0	4
SXL	82	0	4	96	192	3
HLD	82	336	2	192
TAP	83	48	1
TAP	83	96	1
HLD	83	144	1	192
TAP	83	240	0
TAP	83	288	0
TAP	83	336	0
TAP	84	48	1
TAP	84	48	7
TAP	84	96	1
TAP	84	96	7
HLD	84	144	6	48
HLD	84	192	4	48
HLD	84	240	5	48
TAP	84	288	2
TAP	84	312	2
HLD	84	336	3	48
HLD	85	0	1	48
HLD	85	48	7	48
TAP	85	96	0
TAP	85	120	0
HLD	85	144	6	48
TAP	85	192	4
TAP	85	216	4
HLD	85	240	5	48
HLD	85	288	1	48
TAP	85	336	3
TAP	85	360	3
HLD	86	0	2	48
TAP	86	48	5
TAP	86	72	5
HLD	86	96	4	48
HLD	86	144	6	48
TAP	86	192	0
TAP	86	216	0
HLD	86	240	7	48
HLD	86	288	1	48
TAP	86	336	3
TAP	86	360	3
HLD	87	0	2	48
HLD	87	48	5	48
TAP	87	96	4
TAP	87	120	4
HLD	87	144	7	48
TAP	87	192	0
BST	87	240	1
SI_	87	240	1	96	96	4
BST	87	240	6
SI_	87	240	6	96	96	3
TAP	88	144	3
TAP	88	144	5
TAP	88	192	4
TAP	88	240	3
TAP	88	288	2
TAP	88	288	4
TAP	89	0	1
TAP	89	0	3
TAP	89	48	1
TAP	89	48	3
TAP	89	144	4
TAP	89	144	6
TAP	89	240	2
TAP	89	240	4
TAP	89	336	4
TAP	89	336	5
TAP	90	48	2
TAP	90	48	4
TAP	90	96	3
TAP	90	144	4
TAP	90	192	3
TAP	90	192	5
TAP	90	288	4
TAP	90	288	6
TAP	90	336	4
TAP	90	336	6
TAP	91	48	1
TAP	91	48	3
TAP	91	144	3
TAP	91	144	5
TAP	91	240	2
TAP	91	240	3
TAP	91	336	4
TAP	91	336	5
TAP	92	0	6
TAP	92	48	4
TAP	92	48	5
TAP	92	96	6
TAP	92	144	4
TAP	92	144	5
TAP	92	192	6
TAP	92	240	4
TAP	92	240	5
TAP	92	288	6
TAP	92	336	3
TAP	92	336	5
TAP	93	0	6
TAP	93	48	3
TAP	93	48	5
TAP	93	96	6
TAP	93	144	2
TAP	93	144	5
TAP	93	240	2
TAP	93	240	3
TAP	93	288	1
TAP	93	336	2
TAP	93	336	3
TAP	94	0	1
TAP	94	48	2
TAP	94	48	3
TAP	94	96	1
TAP	94	144	2
TAP	94	144	3
TAP	94	192	1
TAP	94	240	2
TAP	94	240	4
TAP	94	288	1
TAP	94	336	2
TAP	94	336	4
TAP	95	0	1
TAP	95	48	2
TAP	95	48	5
TAP	95	96	2
TAP	95	96	5
XHO	95	144	3	96
TAP	95	192	4
TAP	95	240	5
HLD	95	288	6	96
TAP	95	336	5
TAP	96	0	4
XHO	96	96	1	192
BRK	96	96	4
TAP	96	192	2
TAP	96	240	3
HLD	96	288	4	96
TAP	96	336	3
TAP	97	0	2
BRK	97	96	0
XHO	97	96	5	192
TAP	97	192	6
TAP	97	240	7
HLD	97	288	0	96
TAP	97	336	7
TAP	98	0	6
BRK	98	48	0
BRK	98	48	5
STR	98	144	3
SCL	98	144	3	96	672	4
TAP	98	144	4
TTP	98	240	0	C	1	M1

T_REC_TAP	422
T_REC_BRK	31
T_REC_XTP	26
T_REC_HLD	78
T_REC_XHO	4
T_REC_STR	26
T_REC_BST	3
T_REC_XST	1
T_REC_TTP	14
T_REC_THO	1
T_REC_SLD	30
T_REC_ALL	636
T_NUM_TAP	489
T_NUM_BRK	34
T_NUM_HLD	83
T_NUM_SLD	30
T_NUM_ALL	636
T_JUDGE_TAP	523
T_JUDGE_HLD	191
T_JUDGE_SLD	30
T_JUDGE_ALL	744
TTM_EACHPAIRS	128
TTM_SCR_TAP	244500
TTM_SCR_BRK	88400
TTM_SCR_HLD	83000
TTM_SCR_SLD	45000
TTM_SCR_ALL	460900
TTM_SCR_S	443800
TTM_SCR_SS	457500
TTM_RAT_ACV	10074

