VERSION	0.00.00	1.03.00
FES_MODE	0
BPM_DEF	180.000	180.000	180.000	180.000
MET_DEF	4	4
RESOLUTION	384
CLK_DEF	384
COMPATIBLE_CODE	MA2

BPM	0	0	180.000
MET	0	0	4	4
MET	21	0	8	7
MET	21	336	4	4
MET	22	336	8	7
MET	23	288	4	4
MET	24	288	8	7
MET	25	240	4	4
MET	26	240	8	7
MET	27	192	4	4
MET	28	192	8	7
MET	29	144	4	4
MET	30	144	8	7
MET	31	96	4	4
MET	32	96	8	7
MET	33	48	4	4
MET	35	48	4	7
MET	36	336	4	4
MET	38	336	4	7
MET	40	240	4	4
MET	42	240	4	3
MET	43	144	4	4

XST	1	0	5
SI_	1	0	5	96	288	2
TAP	2	192	1
XST	3	0	1
SI_	3	0	1	96	288	5
TAP	4	192	6
XST	5	0	6
SI_	5	0	6	96	288	2
TAP	6	192	1
XHO	7	0	0	384
BRK	8	0	7
TAP	9	0	1
TAP	9	0	6
TAP	9	96	2
TAP	9	96	5
XTP	9	192	3
XTP	9	192	4
XTP	9	288	3
XTP	9	288	4
HLD	10	96	2	192
HLD	10	288	3	192
TAP	11	96	4
TAP	11	192	4
TAP	11	288	4
TAP	11	288	5
HLD	12	96	6	192
HLD	12	288	5	192
TAP	13	96	4
TAP	13	192	4
TAP	13	288	3
TAP	13	288	4
HLD	14	96	2	192
HLD	14	288	1	192
TAP	15	96	0
TAP	15	192	0
TAP	15	288	0
TAP	15	288	7
HLD	16	96	5	192
HLD	16	288	6	192
TAP	17	96	7
XHO	17	192	0	144
XHO	17	192	7	144
XTP	18	96	1
XTP	18	96	6
XHO	18	192	1	144
XHO	18	192	6	144
XTP	19	96	2
XTP	19	96	5
XTP	19	192	3
XTP	19	192	4
TAP	20	0	2
TAP	20	96	2
TAP	20	192	2
TAP	20	192	3
TAP	20	288	4
TAP	21	0	4
TAP	21	96	3
TAP	21	96	4
TAP	21	192	2
TAP	21	192	5
TAP	21	288	2
TAP	21	288	5
TAP	22	0	1
TAP	22	96	1
TAP	22	192	0
TAP	22	192	1
TAP	22	288	7
TAP	23	0	7
TAP	23	96	0
TAP	23	96	7
XTP	23	192	1
XTP	23	192	6
XTP	23	288	1
XTP	23	288	6
TAP	24	0	5
TAP	24	96	4
TAP	24	192	3
TAP	24	288	2
TAP	25	0	2
TAP	25	96	3
TAP	25	192	4
TAP	25	288	5
TAP	26	0	6
TAP	26	96	0
TAP	26	96	7
TAP	26	192	0
TAP	26	192	7
TAP	26	288	0
TAP	26	288	7
TAP	27	0	1
TAP	27	0	6
XTP	27	96	2
XTP	27	96	5
TAP	27	192	5
TAP	27	288	5
TAP	28	0	4
TAP	28	0	5
TAP	28	96	3
TAP	28	192	3
TAP	28	288	3
TAP	28	288	4
TAP	29	0	2
TAP	29	0	5
TAP	29	96	2
TAP	29	96	5
TAP	29	192	6
TAP	29	288	6
TAP	30	0	6
TAP	30	0	7
TAP	30	96	0
TAP	30	192	0
TAP	30	288	0
TAP	30	288	7
XTP	31	0	1
XTP	31	0	6
TAP	31	192	5
TAP	31	288	4
TAP	32	0	3
TAP	32	0	6
TAP	32	96	2
TAP	32	192	3
TAP	32	288	1
TAP	32	288	4
TAP	33	0	5
TAP	33	96	4
TAP	33	192	3
TAP	33	192	6
TAP	33	288	7
TAP	34	0	0
TAP	34	0	7
TAP	34	96	1
TAP	34	96	6
BRK	34	144	1
BRK	34	144	6
TTP	35	48	3	B	0	L1
TTP	35	48	4	B	0	L1
TTP	35	240	6	E	0	L1
TTP	35	336	5	B	0	L1
TTP	36	144	4	E	0	L1
TTP	36	240	3	B	0	L1
TTP	37	48	2	E	0	L1
TTP	37	144	1	B	0	L1
TAP	37	336	0
TAP	37	336	7
TAP	38	48	0
TAP	38	48	7
TAP	38	144	1
TAP	38	144	6
TAP	38	240	1
TAP	38	240	6
XTP	38	336	2
XTP	38	336	5
TTP	39	144	2	E	0	L1
TTP	39	240	2	B	0	L1
TTP	40	48	5	B	0	L1
TTP	40	144	6	E	0	L1
TAP	40	336	7
TAP	41	48	0
TAP	41	48	7
XTP	41	144	6
TAP	41	240	5
TAP	41	336	4
TAP	42	48	3
TAP	42	144	2
TAP	42	240	1
HLD	42	336	0	96
HLD	42	336	7	96
BRK	43	144	1
BRK	43	144	6
TAP	43	240	1
TAP	43	240	6
TAP	43	336	2
TAP	44	0	2
TAP	44	48	3
TAP	44	144	3
TAP	44	144	4
TAP	44	240	3
TAP	44	240	4
TAP	44	336	5
TAP	45	0	5
TAP	45	48	4
TAP	45	144	4
TAP	45	144	5
TAP	45	240	6
TAP	45	336	2
TAP	45	336	3
TAP	46	48	1
TAP	46	144	0
TAP	46	144	7
TAP	46	240	1
TAP	46	240	6
XTP	46	336	2
XTP	46	336	5
STR	47	144	6
SI_	47	144	6	96	96	3
STR	47	336	2
SI_	47	336	2	96	96	7
STR	48	144	6
SI_	48	144	6	96	96	3
STR	48	336	2
SI_	48	336	2	96	96	7
STR	49	144	6
SCL	49	144	6	96	288	1
XTP	50	336	0
XTP	50	336	6
TAP	51	144	2
TAP	51	144	5
TAP	51	240	2
TAP	51	240	5
TAP	51	336	6
TAP	52	0	6
TAP	52	48	7
TAP	52	144	0
TAP	52	144	7
TAP	52	240	0
TAP	52	240	7
TAP	52	336	1
TAP	53	0	1
TAP	53	48	0
HLD	53	144	2	96
TAP	53	240	3
HLD	53	336	6	96
TAP	54	48	5
HLD	54	144	1	96
TAP	54	240	0
XTP	54	336	2
XTP	54	336	7
STR	55	144	1
SI_	55	144	1	96	96	4
STR	55	336	5
SI_	55	336	5	96	96	0
STR	56	144	1
SI_	56	144	1	96	96	4
STR	56	336	5
SI_	56	336	5	96	96	0
STR	57	144	1
SCR	57	144	1	96	288	6
XTP	58	336	1
XTP	58	336	7
THO	59	144	0	864	C	0	L1
HLD	63	144	7	1152
HLD	65	144	0	384
XTP	66	336	1
XTP	66	336	6
TAP	67	144	2
TAP	67	240	2
HLD	67	336	2	384
TAP	68	144	3
TAP	68	336	3
TAP	69	144	5
TAP	69	240	5
HLD	69	336	5	384
TAP	70	144	4
TAP	70	336	4
TAP	71	48	4
TAP	71	48	5
TAP	71	144	3
TAP	71	240	3
TAP	71	336	2
TAP	72	48	2
TAP	72	144	1
TAP	72	240	1
TAP	72	336	0
TAP	73	48	0
TAP	73	144	7
TAP	73	240	7
TAP	73	336	6
TAP	74	48	6
TAP	74	144	5
TAP	74	240	5
TAP	74	336	3
TAP	74	336	4
TAP	75	48	3
TAP	75	48	4
BRK	75	144	2
BRK	75	144	5
XTP	76	96	0
XTP	76	96	7
TAP	76	192	1
TAP	76	192	6
TAP	76	240	1
TAP	76	240	6
TAP	76	336	2
TAP	76	336	3
TAP	77	48	2
TAP	77	48	3
TAP	77	144	4
TAP	77	144	5
TAP	77	240	4
TAP	77	240	5
TAP	77	336	6
TAP	77	336	7
TAP	78	48	6
TAP	78	48	7
TAP	78	144	0
TAP	78	192	0
TAP	78	240	0
TAP	78	336	1
TAP	78	336	7
TAP	79	0	1
TAP	79	0	7
TAP	79	144	7
TAP	79	192	7
TAP	79	240	7
TAP	79	336	0
TAP	79	336	6
TAP	80	0	0
TAP	80	0	6
TAP	80	144	7
TAP	80	192	7
TAP	80	240	0
TAP	80	288	0
TAP	80	336	6
TAP	81	0	6
TAP	81	48	1
TAP	81	96	1
TAP	81	144	5
TAP	81	192	5
TAP	81	240	2
TAP	81	288	2
TAP	81	336	4
XTP	82	48	3
XTP	82	48	5
XTP	82	96	3
XTP	82	96	5
XTP	82	192	2
XTP	82	192	4
XTP	82	240	2
XTP	82	240	4
STR	82	336	5
SI_	82	336	5	96	96	0
STR	83	144	1
SI_	83	144	1	96	96	4
TAP	83	336	5
TAP	84	48	5
TAP	84	144	6
TAP	84	192	6
TAP	84	240	6
TAP	84	240	7
TAP	84	336	1
TAP	85	0	1
TAP	85	48	0
TAP	85	48	1
TAP	85	144	2
TAP	85	192	2
TAP	85	240	2
TAP	85	240	3
TAP	85	336	4
TAP	86	0	4
TAP	86	48	3
TAP	86	48	4
TAP	86	144	5
TAP	86	192	5
TAP	86	240	4
TAP	86	240	6
TAP	86	336	2
TAP	87	0	2
TAP	87	48	1
TAP	87	48	3
TAP	87	144	0
TAP	87	192	0
TAP	87	240	0
TAP	87	240	7
BRK	87	288	0
BRK	87	288	7
TAP	88	144	2
TAP	88	144	3
TAP	88	240	1
TAP	88	336	0
TAP	89	48	7
TAP	89	144	6
TAP	89	240	5
XTP	89	336	4
XTP	89	336	5
TAP	90	48	4
TAP	90	48	5
TAP	90	144	6
TAP	90	240	7
TAP	90	336	0
TAP	91	48	1
TAP	91	144	2
XTP	91	240	2
XTP	91	240	3
TAP	91	336	3
TAP	91	336	4
TAP	92	48	4
TAP	92	48	5
TAP	92	144	3
TAP	92	144	4
TAP	92	240	2
TAP	92	240	3
TAP	92	336	1
TAP	92	336	4
TAP	93	48	0
TAP	93	48	5
TAP	93	144	6
TAP	93	144	7
TAP	93	240	0
TAP	93	240	7
TAP	93	336	0
TAP	93	336	1
TAP	94	48	0
TAP	94	48	7
TAP	94	144	6
TAP	94	144	7
TAP	94	240	0
TAP	94	240	5
XTP	94	336	1
XTP	94	336	4
TAP	95	144	3
TAP	95	144	4
TAP	95	240	5
TAP	95	288	5
TAP	95	336	4
TAP	96	48	3
TAP	96	48	6
TAP	96	144	2
TAP	96	192	2
TAP	96	240	3
TAP	96	336	1
TAP	96	336	4
TAP	97	48	0
TAP	97	48	7
TAP	97	144	1
TAP	97	144	6
TAP	97	192	1
TAP	97	192	6
TAP	97	240	1
TAP	97	240	6
TAP	97	336	2
TAP	97	336	3
XTP	98	48	3
XTP	98	48	4
TTP	98	240	0	C	1	L1
TTP	98	240	1	B	0	L1
TTP	98	240	6	B	0	L1

T_REC_TAP	310
T_REC_BRK	9
T_REC_XTP	49
T_REC_HLD	17
T_REC_XHO	5
T_REC_STR	12
T_REC_BST	0
T_REC_XST	3
T_REC_TTP	15
T_REC_THO	1
T_REC_SLD	15
T_REC_ALL	436
T_NUM_TAP	389
T_NUM_BRK	9
T_NUM_HLD	23
T_NUM_SLD	15
T_NUM_ALL	436
T_JUDGE_TAP	398
T_JUDGE_HLD	128
T_JUDGE_SLD	15
T_JUDGE_ALL	541
TTM_EACHPAIRS	117
TTM_SCR_TAP	194500
TTM_SCR_BRK	23400
TTM_SCR_HLD	23000
TTM_SCR_SLD	22500
TTM_SCR_ALL	263400
TTM_SCR_S	254650
TTM_SCR_SS	262500
TTM_RAT_ACV	10034

