VERSION	0.00.00	1.03.00
FES_MODE	0
BPM_DEF	180.000	180.000	180.000	180.000
MET_DEF	4	4
RESOLUTION	384
CLK_DEF	384
COMPATIBLE_CODE	MA2

BPM	0	0	180.000
MET	0	0	4	4
MET	21	0	8	7
MET	21	336	4	4
MET	22	336	8	7
MET	23	288	4	4
MET	24	288	8	7
MET	25	240	4	4
MET	26	240	8	7
MET	27	192	4	4
MET	28	192	8	7
MET	29	144	4	4
MET	30	144	8	7
MET	31	96	4	4
MET	32	96	8	7
MET	33	48	4	4
MET	35	48	4	7
MET	36	336	4	4
MET	38	336	4	7
MET	40	240	4	4
MET	42	240	4	3
MET	43	144	4	4

TAP	10	0	0
TAP	10	192	0
TAP	11	0	0
TAP	12	0	7
TAP	12	192	7
TAP	13	0	7
TAP	14	0	0
TAP	14	192	0
TAP	15	0	0
TAP	15	0	7
TAP	16	0	7
TAP	16	192	7
BRK	17	0	0
BRK	17	0	7
XHO	18	0	0	192
XHO	19	0	7	192
TAP	20	0	0
TAP	20	192	0
TAP	21	0	1
TAP	21	192	1
TAP	22	0	2
TAP	22	192	2
TAP	23	0	3
TAP	23	192	3
TAP	23	192	4
TAP	24	0	4
TAP	24	192	4
TAP	25	0	5
TAP	25	192	5
TAP	26	0	6
HLD	26	192	6	192
HLD	26	192	7	192
TAP	27	192	7
TAP	28	0	7
TAP	28	192	6
TAP	29	0	6
TAP	29	192	5
TAP	30	0	5
TAP	30	192	4
TAP	31	0	3
TAP	31	0	4
TAP	31	192	3
TAP	32	0	3
TAP	32	192	2
HLD	33	0	2	336
HLD	33	0	3	336
BRK	34	144	2
BRK	34	144	3
TAP	35	48	1
TAP	35	240	1
HLD	36	48	2	192
TAP	36	336	2
TAP	37	144	2
TAP	37	336	3
TAP	38	48	3
TAP	38	144	2
TAP	38	144	4
TAP	38	336	5
TAP	39	144	5
HLD	39	336	6	192
TAP	40	240	6
TAP	41	48	6
XHO	41	144	6	192
XHO	41	144	7	192
XHO	42	144	0	192
XHO	42	144	1	192
TAP	43	144	7
TAP	43	240	7
TAP	43	336	7
TAP	44	144	6
TAP	44	240	6
TAP	44	336	6
TAP	45	144	5
TAP	45	240	5
TAP	45	336	5
TAP	46	144	4
TAP	46	240	4
TAP	46	336	3
TAP	46	336	4
TAP	47	144	3
TAP	47	240	3
TAP	47	336	2
TAP	48	48	2
TAP	48	144	1
TAP	48	240	1
TAP	48	336	0
TAP	48	336	7
STR	49	144	0
SI_	49	144	0	96	288	4
XTP	50	336	0
XTP	50	336	7
TAP	51	144	0
TAP	51	240	0
TAP	51	336	0
TAP	52	144	1
TAP	52	240	1
TAP	52	336	1
TAP	53	144	2
TAP	53	240	2
TAP	53	336	2
HLD	54	144	3	192
HLD	54	144	4	192
TAP	55	144	4
TAP	55	240	4
TAP	55	336	5
TAP	56	48	5
TAP	56	144	6
TAP	56	240	6
TAP	56	336	0
TAP	56	336	7
STR	57	144	7
SI_	57	144	7	96	288	3
STR	59	144	0
SI_	59	144	0	96	288	4
STR	61	144	6
SI_	61	144	6	96	288	2
STR	63	144	1
SI_	63	144	1	96	288	5
STR	65	144	7
SI_	65	144	7	96	288	3
TTP	67	144	2	B	0	L1
TTP	68	144	1	B	0	L1
TTP	69	144	0	B	0	L1
TTP	70	144	7	B	0	L1
TTP	71	144	6	B	0	L1
TTP	72	144	5	B	0	L1
TTP	73	144	3	B	0	L1
TTP	73	144	4	B	0	L1
THO	74	144	0	384	C	1	L1
XTP	76	144	0
TAP	76	240	0
TAP	76	336	0
TAP	77	144	1
TAP	77	240	1
TAP	77	336	1
TAP	78	144	2
TAP	78	240	2
TAP	78	336	3
TAP	79	48	3
TAP	79	144	4
TAP	79	240	4
TAP	79	336	3
TAP	79	336	4
XHO	80	144	3	192
XHO	80	144	5	192
XHO	81	144	2	192
XHO	81	144	4	192
TAP	82	144	4
TAP	82	240	4
TAP	82	336	4
TAP	83	144	5
TAP	83	240	5
TAP	83	336	5
TAP	84	144	6
TAP	84	240	6
TAP	84	336	7
TAP	85	48	7
TAP	85	144	0
TAP	85	240	0
TAP	85	336	0
TAP	85	336	7
TAP	86	144	0
TAP	86	240	0
TAP	86	336	7
TAP	87	48	7
TAP	87	144	0
TAP	87	144	7
TAP	87	240	0
TAP	87	240	7
BRK	87	336	1
BRK	87	336	6
TAP	88	144	0
TAP	88	240	0
TAP	88	336	0
HLD	89	144	1	192
HLD	89	144	7	192
TAP	90	48	7
TAP	90	144	7
TAP	90	240	7
HLD	91	48	0	192
HLD	91	48	6	192
TAP	91	336	0
TAP	92	48	0
TAP	92	144	0
HLD	92	336	0	192
HLD	92	336	1	192
TAP	93	240	7
TAP	93	336	7
TAP	94	48	7
HLD	94	240	6	192
HLD	94	240	7	192
TAP	95	144	0
TAP	95	240	0
XTP	95	336	0
XTP	95	336	1
TAP	96	144	7
TAP	96	240	7
XTP	96	336	6
XTP	96	336	7
TAP	97	144	0
TAP	97	144	7
TAP	97	240	0
TAP	97	240	7
BRK	97	336	1
BRK	97	336	6
THO	98	240	0	720	C	0	L1

T_REC_TAP	143
T_REC_BRK	8
T_REC_XTP	7
T_REC_HLD	16
T_REC_XHO	10
T_REC_STR	6
T_REC_BST	0
T_REC_XST	0
T_REC_TTP	8
T_REC_THO	2
T_REC_SLD	6
T_REC_ALL	206
T_NUM_TAP	164
T_NUM_BRK	8
T_NUM_HLD	28
T_NUM_SLD	6
T_NUM_ALL	206
T_JUDGE_TAP	172
T_JUDGE_HLD	133
T_JUDGE_SLD	6
T_JUDGE_ALL	311
TTM_EACHPAIRS	31
TTM_SCR_TAP	82000
TTM_SCR_BRK	20800
TTM_SCR_HLD	28000
TTM_SCR_SLD	9000
TTM_SCR_ALL	139800
TTM_SCR_S	134850
TTM_SCR_SS	139000
TTM_RAT_ACV	10057

