VERSION	0.00.00	1.03.00
FES_MODE	0
BPM_DEF	160.000	160.000	160.000	160.000
MET_DEF	4	4
RESOLUTION	384
CLK_DEF	384
COMPATIBLE_CODE	MA2

BPM	0	0	160.000
MET	0	0	4	4

XST	1	0	0
SCR	1	0	0	96	192	5
XHO	1	0	6	288
HLD	2	0	1	288
STR	2	0	7
SCL	2	0	7	96	192	2
STR	3	0	0
SCR	3	0	0	96	192	3
TAP	3	0	7
TAP	3	96	6
TAP	3	192	5
TAP	3	288	4
TAP	4	0	3
TAP	4	0	5
TAP	4	48	6
TAP	4	96	2
TAP	4	96	4
TAP	4	144	1
TAP	4	192	3
TAP	4	192	5
TAP	4	240	6
TAP	4	288	2
TAP	4	288	4
TAP	4	336	1
XTP	5	0	6
TAP	5	24	7
XTP	5	48	5
TAP	5	72	0
XTP	5	96	4
TAP	5	120	1
XTP	5	144	3
TAP	5	168	2
XTP	5	192	0
TAP	5	216	1
XTP	5	240	7
TAP	5	264	2
XTP	5	288	6
TAP	5	312	3
STR	5	336	5
SCR	5	336	5	96	192	4
TAP	5	360	4
HLD	6	0	5	192
TTP	6	288	0	C	1	M1
TAP	7	0	2
TAP	7	48	1
TAP	7	48	3
TAP	7	96	5
TAP	7	120	4
TAP	7	168	3
TAP	7	168	6
TAP	7	216	2
TAP	7	240	3
TAP	7	288	1
TAP	7	288	4
TAP	7	336	2
TAP	7	336	3
TAP	8	0	5
TAP	8	48	4
TAP	8	96	3
TAP	8	96	6
TAP	8	144	2
TAP	8	168	3
TAP	8	216	5
TAP	8	240	4
TAP	8	288	2
TAP	8	312	3
TAP	8	336	1
TAP	9	0	5
TAP	9	48	4
TAP	9	48	6
TAP	9	96	2
TAP	9	120	3
TAP	9	168	1
TAP	9	168	4
TAP	9	216	5
TAP	9	240	4
TAP	9	288	3
TAP	9	288	6
TAP	9	336	1
TAP	9	360	3
TAP	10	0	2
TAP	10	48	6
TAP	10	72	4
TAP	10	96	5
TAP	10	144	1
TAP	10	168	3
XTP	10	192	2
XTP	10	208	3
XTP	10	224	2
XTP	10	240	3
XTP	10	256	2
XTP	10	272	3
XTP	10	288	2
TAP	11	0	1
TAP	11	48	0
TAP	11	96	2
TAP	11	96	7
TAP	11	144	6
TAP	11	168	0
TAP	11	216	1
TAP	11	240	7
TAP	11	288	3
TAP	11	288	6
TAP	11	336	4
TAP	11	336	5
TAP	12	0	6
TAP	12	48	7
TAP	12	96	0
TAP	12	96	5
TAP	12	144	1
TAP	12	168	7
TAP	12	216	6
TAP	12	240	0
TAP	12	288	2
TAP	12	288	3
TAP	12	336	1
TAP	12	336	4
XTP	13	0	0
TAP	13	24	4
TAP	13	48	3
TAP	13	72	4
XTP	13	96	1
TAP	13	120	4
TAP	13	144	3
TAP	13	168	4
XTP	13	192	2
TAP	13	216	4
TAP	13	240	3
TAP	13	264	4
XTP	13	288	1
TAP	13	312	4
TAP	13	336	3
TAP	13	360	4
XST	14	0	0
SCL	14	0	0	96	48	5
SCR	14	0	0	96	48	3
XST	14	96	0
SF_	14	96	0	96	48	4
XTP	14	192	0
BRK	14	288	2
BRK	14	288	6
TAP	15	0	4
HLD	15	0	6	96
TAP	15	96	4
TAP	15	144	3
TAP	15	144	5
TAP	15	240	2
TAP	15	288	3
TAP	15	336	1
TAP	15	336	4
TAP	16	48	5
TAP	16	72	4
TAP	16	96	5
TAP	16	144	3
TAP	16	144	6
HLD	16	192	5	48
HLD	16	240	4	48
HLD	16	288	3	48
TAP	16	336	2
TAP	17	48	1
TAP	17	96	2
TAP	17	144	3
TAP	17	192	5
TAP	17	240	4
TAP	17	288	2
TAP	17	336	3
TAP	18	0	4
TAP	18	0	5
TAP	18	48	6
TAP	18	96	2
TAP	18	96	3
TAP	18	144	1
TAP	18	192	4
TAP	18	192	5
TAP	18	288	3
TAP	18	288	6
HLD	19	0	1	96
TAP	19	0	3
TAP	19	96	3
TAP	19	144	2
TAP	19	144	4
TAP	19	240	5
TAP	19	288	4
TAP	19	336	3
TAP	19	336	6
TAP	20	48	2
TAP	20	72	3
TAP	20	96	2
TAP	20	144	1
TAP	20	144	4
HLD	20	192	2	48
HLD	20	240	3	48
HLD	20	288	4	48
TAP	20	336	5
STR	21	0	6
SCR	21	0	6	96	48	1
TAP	21	48	6
TAP	21	96	4
TAP	21	144	3
XST	21	192	1
SCL	21	192	1	96	48	6
TAP	21	240	1
TAP	21	288	3
TAP	21	336	4
XHO	22	0	5	96
TAP	22	48	4
HLD	22	96	1	96
TAP	22	144	3
HLD	22	192	6	48
TAP	22	240	4
TAP	22	264	5
TAP	22	288	4
HLD	23	0	1	96
TAP	23	0	3
TAP	23	96	3
TAP	23	144	2
TAP	23	144	4
TAP	23	240	5
TAP	23	288	4
TAP	23	336	3
TAP	23	336	6
TAP	24	48	2
TAP	24	72	3
TAP	24	96	2
TAP	24	144	1
TAP	24	144	4
HLD	24	192	1	48
HLD	24	240	3	48
HLD	24	288	4	48
TAP	24	336	6
TAP	25	48	1
TAP	25	96	2
TAP	25	144	3
TAP	25	192	5
TAP	25	240	4
TAP	25	288	2
TAP	25	336	3
TAP	26	0	4
TAP	26	0	5
TAP	26	48	6
TAP	26	96	0
TAP	26	96	7
TAP	26	144	1
TAP	26	192	2
TAP	26	192	3
TAP	26	288	1
TAP	26	288	4
TAP	27	0	4
HLD	27	0	6	96
TAP	27	96	4
TAP	27	144	3
TAP	27	144	5
TAP	27	240	2
TAP	27	288	3
TAP	27	336	1
TAP	27	336	4
TAP	28	48	5
TAP	28	72	4
TAP	28	96	5
TAP	28	144	3
TAP	28	144	6
HLD	28	192	6	48
HLD	28	240	4	48
HLD	28	288	3	48
TAP	28	336	1
TAP	29	0	2
TAP	29	24	3
TAP	29	48	2
TAP	29	72	3
HLD	29	96	2	48
TAP	29	144	0
TAP	29	192	5
TAP	29	216	4
TAP	29	240	5
TAP	29	264	4
HLD	29	288	5	48
TAP	29	336	7
HLD	30	0	2	96
TAP	30	48	3
HLD	30	96	5	96
TAP	30	144	3
HLD	30	192	1	96
TAP	30	240	3
HLD	30	288	5	48
TAP	30	336	3
TAP	31	0	2
TAP	31	24	3
TAP	31	48	1
TAP	31	72	4
TAP	31	96	2
TAP	31	120	3
TAP	31	144	1
TAP	31	168	4
STR	31	192	3
SF_	31	192	3	96	48	7
BRK	31	288	3
STR	32	0	5
SCR	32	0	5	96	48	7
TAP	32	48	4
TAP	32	96	3
STR	32	192	5
SCR	32	192	5	96	48	0
TAP	32	240	4
TAP	32	288	3
STR	33	0	5
SCR	33	0	5	96	144	2
TAP	33	48	4
TAP	33	96	3
XTP	33	288	1
XTP	33	288	5
STR	34	0	0
SI_	34	0	0	96	48	4
HLD	34	0	5	96
XTP	34	96	0
STR	34	192	0
SI_	34	192	0	96	48	3
HLD	34	192	5	96
XTP	34	288	0
STR	35	0	0
SI_	35	0	0	96	48	4
HLD	35	0	5	192
XST	35	96	0
SCR	35	96	0	96	48	3
XTP	35	192	0
TTP	35	288	0	C	0	M1
STR	36	0	0
SCR	36	0	0	96	48	2
STR	36	0	4
SCR	36	0	4	96	48	6
XTP	36	96	0
XTP	36	96	4
STR	36	192	3
SI_	36	192	3	96	48	1
STR	36	192	7
SI_	36	192	7	96	48	5
XTP	36	288	3
XTP	36	288	7
XST	37	0	0
SCR	37	0	0	96	48	2
XST	37	0	4
SCR	37	0	4	96	48	6
STR	37	96	0
SI_	37	96	0	96	48	6
STR	37	96	4
SI_	37	96	4	96	48	2
XTP	37	192	0
XTP	37	192	4
XTP	37	288	1
XTP	37	288	5
HLD	38	0	3	48
HLD	38	0	4	48
HLD	38	96	3	48
HLD	38	96	5	48
HLD	38	192	3	48
HLD	38	192	6	48
HLD	38	288	3	48
HLD	38	288	7	48
TAP	39	0	3
XTP	39	0	4
TAP	39	48	3
TAP	39	96	3
XTP	39	96	5
TAP	39	144	3
TAP	39	192	3
XTP	39	192	6
TAP	39	240	3
TAP	39	288	3
XTP	39	288	7
TAP	39	336	3
XST	40	0	0
SI_	40	0	0	96	48	2
XST	40	0	7
SI_	40	0	7	96	48	3
XTP	40	96	0
XTP	40	96	7
XST	40	192	0
SI_	40	192	0	96	48	4
XST	40	192	7
SI_	40	192	7	96	48	5
XTP	40	288	0
XTP	40	288	7
TAP	41	0	3
TAP	41	0	7
TAP	41	72	1
TAP	41	72	5
TTP	41	144	0	C	1	M1
TTP	41	144	2	E	0	M1
TTP	41	144	6	E	0	M1
STR	42	0	0
SI_	42	0	0	96	48	4
HLD	42	0	7	48
STR	42	96	0
SCR	42	96	0	96	48	2
HLD	42	96	6	48
STR	42	192	0
SI_	42	192	0	96	48	4
HLD	42	192	7	48
STR	42	288	0
SCR	42	288	0	96	48	2
HLD	42	288	6	48
STR	43	0	0
SI_	43	0	0	96	48	4
HLD	43	0	7	48
TAP	43	96	0
HLD	43	96	6	48
TAP	43	192	0
TAP	43	192	7
TAP	43	240	1
TAP	43	288	2
TAP	43	288	4
TAP	44	0	5
TAP	44	24	4
TAP	44	48	5
TAP	44	72	4
TAP	44	96	5
TAP	44	144	6
TAP	44	144	7
TAP	44	192	2
TAP	44	216	3
TAP	44	240	2
TAP	44	264	3
TAP	44	288	2
TAP	44	336	0
TAP	44	336	1
TAP	45	0	4
TAP	45	0	5
TAP	45	48	2
TAP	45	72	3
TAP	45	96	1
TAP	45	144	5
TAP	45	168	4
TAP	45	192	6
TAP	45	240	3
TAP	45	240	4
BRK	45	288	1
BRK	45	288	6
STR	46	0	0
SI_	46	0	0	96	48	4
HLD	46	0	5	48
STR	46	96	0
SCR	46	96	0	96	48	2
HLD	46	96	7	48
STR	46	192	0
SI_	46	192	0	96	48	4
HLD	46	192	5	48
STR	46	288	0
SCR	46	288	0	96	48	2
HLD	46	288	7	48
STR	47	0	0
SI_	47	0	0	96	48	4
HLD	47	0	5	48
STR	47	96	0
SCR	47	96	0	96	48	2
HLD	47	96	7	48
TAP	47	192	0
HLD	47	192	5	48
XTP	47	288	2
XTP	47	288	6
TAP	48	0	3
TAP	48	0	7
TAP	48	48	6
TAP	48	96	5
TAP	48	144	4
TAP	48	192	3
TAP	48	192	7
TAP	48	240	0
TAP	48	288	1
TAP	48	336	2
TAP	49	0	3
STR	49	0	7
SCL	49	0	7	96	48	4
SCR	49	0	7	96	48	2
XST	49	96	7
SF_	49	96	7	96	48	3
XTP	49	192	7
BRK	49	288	1
BRK	49	288	5
STR	50	0	1
SCR	50	0	1	96	48	3
TAP	50	48	0
STR	50	96	6
SCL	50	96	6	96	48	4
TAP	50	144	7
STR	50	192	1
SUR	50	192	1	96	48	5
TAP	50	240	0
STR	50	288	6
SUL	50	288	6	96	48	2
TAP	50	336	7
STR	51	0	1
SI_	51	0	1	96	48	5
TAP	51	48	0
STR	51	96	6
SI_	51	96	6	96	48	2
TAP	51	144	7
STR	51	192	1
SI_	51	192	1	96	48	4
TAP	51	240	0
TAP	51	288	6
TAP	51	336	7
TAP	52	0	2
TAP	52	24	3
TAP	52	48	2
TAP	52	72	3
TAP	52	96	2
TAP	52	144	0
TAP	52	144	1
TAP	52	192	5
TAP	52	216	4
TAP	52	240	5
TAP	52	264	4
TAP	52	288	5
TAP	52	336	6
TAP	52	336	7
TAP	53	0	2
TAP	53	0	3
TAP	53	48	5
TAP	53	72	4
TAP	53	96	6
TAP	53	144	2
TAP	53	168	3
TAP	53	192	1
TAP	53	240	3
TAP	53	240	4
BRK	53	288	1
BRK	53	288	6
TAP	54	0	0
STR	54	0	1
SI_	54	0	1	96	48	4
TAP	54	72	0
TAP	54	96	1
TAP	54	144	5
STR	54	192	6
SI_	54	192	6	96	48	3
TAP	54	192	7
TAP	54	264	7
TAP	54	288	6
TAP	54	336	2
TAP	55	0	0
STR	55	0	1
SI_	55	0	1	96	48	4
TAP	55	72	0
TAP	55	96	1
STR	55	144	5
SCR	55	144	5	96	72	2
TTP	55	192	0	C	1	M1
XTP	56	48	1
TAP	56	96	3
TAP	56	144	4
TAP	56	192	6
TAP	56	240	4
TAP	56	288	1
TAP	56	336	3
TAP	57	0	4
STR	57	0	6
SI_	57	0	6	96	48	2
STR	57	96	0
SI_	57	96	0	96	48	4
TAP	57	96	6
TAP	57	192	0
STR	57	192	5
SI_	57	192	5	96	48	1
XTP	57	288	3
XTP	57	288	5
STR	58	0	3
SCL	58	0	3	96	48	1
STR	58	0	4
SI_	58	0	4	96	48	1
BRK	58	96	3
BRK	58	96	4
STR	58	192	3
SI_	58	192	3	96	48	6
STR	58	192	4
SCR	58	192	4	96	48	6
BST	58	288	3
SCL	58	288	3	96	288	4
BST	58	288	4
SUL	58	288	4	96	288	3
BRK	59	0	3
BRK	59	0	4
XHO	60	0	1	288
XST	60	0	7
SCL	60	0	7	96	192	2
STR	61	0	0
SCR	61	0	0	96	192	5
HLD	61	0	6	288
TAP	62	0	0
STR	62	0	7
SCL	62	0	7	96	192	4
TAP	62	96	1
TAP	62	192	2
TAP	62	288	3
TAP	63	0	2
TAP	63	0	4
TAP	63	48	1
TAP	63	96	3
TAP	63	96	5
TAP	63	144	6
TAP	63	192	2
TAP	63	192	4
TAP	63	240	1
TAP	63	288	3
TAP	63	288	5
TAP	63	336	6
STR	64	0	3
SCL	64	0	3	96	1056	3
XHO	64	0	5	192
HLD	65	0	6	192
XTP	66	0	2
XTP	66	192	2
XTP	67	0	2
XTP	67	96	2
XTP	67	192	2
XTP	67	192	3
XTP	67	288	1
XTP	67	288	4
XTP	68	0	1
TAP	68	24	4
TAP	68	48	2
TAP	68	72	3
TAP	68	96	1
TAP	68	120	4
TAP	68	144	2
TAP	68	168	3
TAP	68	192	1
TAP	68	216	4
TAP	68	240	2
TAP	68	264	3
TAP	68	288	1
TAP	68	312	4
TAP	68	336	2
TAP	68	360	5
XTP	69	0	3
TAP	69	24	6
TAP	69	48	4
TAP	69	72	5
TAP	69	96	3
TAP	69	120	6
TAP	69	144	4
TAP	69	168	5
TAP	69	192	3
TAP	69	216	6
TAP	69	240	4
TAP	69	264	5
TAP	69	288	3
TAP	69	312	6
TAP	69	336	2
TAP	69	360	5
XTP	70	0	1
TAP	70	24	4
TAP	70	48	3
TAP	70	72	4
XTP	70	96	0
TAP	70	120	4
TAP	70	144	3
TAP	70	168	4
XTP	70	192	1
TAP	70	216	4
TAP	70	240	3
TAP	70	264	4
XTP	70	288	2
TAP	70	312	4
TAP	70	336	3
TAP	70	360	4
XTP	71	0	1
TAP	71	24	3
XTP	71	48	2
TAP	71	72	4
XTP	71	96	3
TAP	71	120	5
XTP	71	144	4
TAP	71	168	6
XST	71	192	4
SF_	71	192	4	96	48	0
BRK	71	288	4
STR	72	0	1
SI_	72	0	1	96	48	3
TAP	72	0	4
STR	72	96	0
SI_	72	96	0	96	48	4
XTP	72	96	1
XTP	72	192	0
STR	72	192	3
SI_	72	192	3	96	48	7
XTP	72	288	3
STR	72	288	4
SI_	72	288	4	96	48	6
STR	73	0	1
SI_	73	0	1	96	48	3
XTP	73	0	4
STR	73	96	0
SI_	73	96	0	96	48	4
XTP	73	96	1
XTP	73	192	0
TAP	73	192	3
TTP	73	288	0	C	1	M1
TTP	73	288	2	E	0	M1
TTP	73	288	6	E	0	M1
TAP	74	0	3
STR	74	0	6
SI_	74	0	6	96	48	4
XTP	74	96	6
STR	74	96	7
SI_	74	96	7	96	48	3
STR	74	192	4
SI_	74	192	4	96	48	0
XTP	74	192	7
STR	74	288	3
SI_	74	288	3	96	48	1
XTP	74	288	4
XTP	75	0	3
STR	75	0	6
SI_	75	0	6	96	48	4
XTP	75	96	6
STR	75	96	7
SI_	75	96	7	96	48	3
TAP	75	192	4
XTP	75	192	7
TTP	75	288	0	C	1	M1
STR	76	0	1
SI_	76	0	1	96	48	3
TAP	76	48	1
STR	76	96	0
SI_	76	96	0	96	48	4
TAP	76	144	0
STR	76	192	3
SI_	76	192	3	96	48	7
TAP	76	240	3
STR	76	288	4
SI_	76	288	4	96	48	6
TAP	76	336	4
STR	77	0	0
SI_	77	0	0	96	48	2
TAP	77	48	0
STR	77	96	7
SI_	77	96	7	96	48	3
TAP	77	144	7
STR	77	192	2
SI_	77	192	2	96	48	6
TAP	77	240	2
STR	77	288	5
SI_	77	288	5	96	48	1
TAP	77	336	5
STR	78	0	0
SI_	78	0	0	96	48	4
TAP	78	48	0
STR	78	96	7
SI_	78	96	7	96	48	3
TAP	78	144	7
STR	78	192	1
SI_	78	192	1	96	48	5
TAP	78	240	1
STR	78	288	6
SI_	78	288	6	96	48	2
TAP	78	336	6
BST	79	0	0
SI_	79	0	0	96	48	4
BST	79	96	0
SCL	79	96	0	96	48	5
SCR	79	96	0	96	48	3
BST	79	192	0
SF_	79	192	0	96	48	4
BRK	79	288	0
XTP	80	0	1
TAP	80	24	0
XTP	80	48	2
TAP	80	72	7
XTP	80	96	3
TAP	80	120	6
XTP	80	144	4
TAP	80	168	5
XTP	80	192	7
TAP	80	216	6
XTP	80	240	0
TAP	80	264	5
XTP	80	288	1
TAP	80	312	4
XTP	80	336	2
TAP	80	360	3
XTP	81	0	1
XTP	81	0	4
XTP	81	72	3
XTP	81	72	6
XTP	81	144	0
XTP	81	144	7
BRK	81	192	1
BRK	81	192	6
HLD	82	0	0	1344
TAP	82	0	4
TTP	84	0	4	B	0	M1
TTP	84	0	5	B	0	M1
TTP	85	0	2	B	0	M1
TTP	85	0	3	B	0	M1
XHO	86	0	1	288
TTP	86	96	1	B	0	M1
TTP	86	192	0	C	0	M1
TTP	86	288	5	B	0	M1
XHO	87	0	6	288
TTP	87	96	6	B	0	M1
TTP	87	192	0	C	0	M1
TTP	87	288	2	B	0	M1
XTP	88	0	3
XTP	88	0	5
TAP	88	48	6
TAP	88	96	2
TAP	88	96	4
TAP	88	144	1
TAP	88	192	3
TAP	88	192	5
TAP	88	240	6
TAP	88	288	2
TAP	88	288	4
TAP	88	336	1
XST	89	0	7
SCL	89	0	7	96	48	4
SCR	89	0	7	96	48	2
XST	89	96	7
SF_	89	96	7	96	48	3
XTP	89	192	7
BRK	89	288	1
BRK	89	288	5
STR	90	0	0
SCR	90	0	0	96	48	2
TAP	90	0	7
STR	90	96	0
SI_	90	96	0	96	48	4
HLD	90	96	3	48
STR	90	192	0
SCR	90	192	0	96	48	2
HLD	90	192	7	48
STR	90	288	0
SI_	90	288	0	96	48	4
HLD	90	288	3	48
STR	91	0	0
SCR	91	0	0	96	48	2
HLD	91	0	7	48
STR	91	96	0
SI_	91	96	0	96	48	4
HLD	91	96	3	48
STR	91	192	0
SCR	91	192	0	96	48	2
HLD	91	192	7	48
TAP	91	288	0
HLD	91	288	3	48
XHO	92	0	5	96
TAP	92	48	0
HLD	92	96	3	96
TAP	92	144	0
HLD	92	192	5	96
TAP	92	240	0
HLD	92	288	3	48
TAP	92	336	0
TAP	93	0	5
TAP	93	48	2
TAP	93	72	3
TAP	93	96	1
TAP	93	144	5
TAP	93	168	4
TAP	93	192	6
TAP	93	240	3
TAP	93	240	4
BRK	93	288	1
BRK	93	288	6
TAP	94	0	0
STR	94	0	1
SI_	94	0	1	96	48	4
TAP	94	72	0
TAP	94	96	1
TAP	94	144	5
STR	94	192	6
SI_	94	192	6	96	48	3
TAP	94	192	7
TAP	94	264	7
TAP	94	288	6
TAP	94	336	2
TAP	95	0	0
STR	95	0	1
SI_	95	0	1	96	48	4
TAP	95	72	0
TAP	95	96	1
STR	95	144	5
SCR	95	144	5	96	72	2
TTP	95	192	0	C	1	M1
XTP	96	48	1
TAP	96	96	3
TAP	96	144	4
TAP	96	192	6
TAP	96	240	4
TAP	96	288	1
TAP	96	336	3
TAP	97	0	4
STR	97	0	6
SI_	97	0	6	96	48	3
STR	97	96	0
SI_	97	96	0	96	48	5
TAP	97	96	6
TAP	97	192	0
STR	97	192	7
SI_	97	192	7	96	48	3
BRK	97	288	0
BRK	97	288	7
TAP	98	0	2
TAP	98	0	5
TAP	98	48	1
TAP	98	72	3
TAP	98	96	2
TAP	98	144	6
TAP	98	168	4
TAP	98	192	5
TAP	98	240	1
TAP	98	264	3
TAP	98	288	2
TAP	98	312	3
TAP	98	336	2
TAP	98	360	3
STR	99	0	1
SI_	99	0	1	96	48	4
XTP	99	96	0
XTP	99	96	1
STR	99	192	6
SI_	99	192	6	96	48	3
XTP	99	288	6
XTP	99	288	7
XST	100	0	0
SI_	100	0	0	96	48	4
XST	100	0	7
SI_	100	0	7	96	48	5
XTP	100	96	0
XTP	100	96	7
XST	100	192	0
SI_	100	192	0	96	48	2
XST	100	192	7
SI_	100	192	7	96	48	3
XTP	100	288	0
XTP	100	288	7
BST	101	0	0
SUL	101	0	0	96	48	4
BST	101	0	7
SCL	101	0	7	96	48	5
BST	101	96	0
SCR	101	96	0	96	48	2
BST	101	96	7
SUR	101	96	7	96	48	3
BRK	101	192	0
BRK	101	192	7
TTP	101	288	0	C	1	M1
TTP	101	288	1	B	0	M1
TTP	101	288	2	B	0	M1
TTP	101	288	5	B	0	M1
TTP	101	288	6	B	0	M1

T_REC_TAP	485
T_REC_BRK	25
T_REC_XTP	102
T_REC_HLD	63
T_REC_XHO	7
T_REC_STR	90
T_REC_BST	9
T_REC_XST	20
T_REC_TTP	26
T_REC_THO	0
T_REC_SLD	123
T_REC_ALL	950
T_NUM_TAP	723
T_NUM_BRK	34
T_NUM_HLD	70
T_NUM_SLD	123
T_NUM_ALL	950
T_JUDGE_TAP	757
T_JUDGE_HLD	153
T_JUDGE_SLD	123
T_JUDGE_ALL	1033
TTM_EACHPAIRS	175
TTM_SCR_TAP	361500
TTM_SCR_BRK	88400
TTM_SCR_HLD	70000
TTM_SCR_SLD	184500
TTM_SCR_ALL	704400
TTM_SCR_S	680000
TTM_SCR_SS	701000
TTM_RAT_ACV	10048

