VERSION	0.00.00	1.03.00
FES_MODE	0
BPM_DEF	160.000	160.000	160.000	160.000
MET_DEF	4	4
RESOLUTION	384
CLK_DEF	384
COMPATIBLE_CODE	MA2

BPM	0	0	160.000
MET	0	0	4	4

HLD	1	0	2	192
HLD	1	0	4	192
TAP	1	288	2
TAP	1	288	4
HLD	2	0	3	192
HLD	2	0	5	192
TAP	2	288	3
TAP	2	288	5
HLD	3	0	2	96
HLD	3	0	4	96
HLD	3	192	3	96
HLD	3	192	5	96
TAP	4	0	3
TAP	4	0	4
TAP	4	96	2
TAP	4	96	5
TAP	4	192	1
TAP	4	192	6
BRK	4	288	0
BRK	4	288	7
TAP	5	0	2
TAP	5	48	2
TAP	5	96	4
TAP	5	144	4
TAP	5	192	3
TAP	5	240	3
TAP	5	288	5
THO	6	0	0	192	C	1	M1
TTP	6	0	3	B	0	M1
TTP	6	0	4	B	0	M1
TAP	7	0	1
TAP	7	48	1
HLD	7	96	1	72
HLD	7	168	2	72
TAP	7	240	3
TAP	7	288	3
TAP	7	288	4
TAP	8	0	5
TAP	8	96	4
TAP	8	96	6
TAP	8	192	2
TAP	8	240	2
TAP	8	288	1
TAP	8	288	3
TAP	9	0	6
TAP	9	48	6
HLD	9	96	6	72
HLD	9	168	5	72
TAP	9	240	4
TAP	9	288	3
TAP	9	288	4
TAP	10	0	1
TAP	10	0	3
STR	10	96	0
SI_	10	96	0	96	96	5
STR	10	96	1
SI_	10	96	1	96	96	4
TAP	11	0	5
TAP	11	48	5
HLD	11	96	5	72
HLD	11	168	6	72
TAP	11	240	7
TAP	11	288	0
TAP	11	288	7
TAP	12	0	2
TAP	12	48	2
HLD	12	96	2	72
HLD	12	168	1	72
TAP	12	240	0
TAP	12	288	0
TAP	12	288	7
TAP	13	0	6
TAP	13	48	6
TAP	13	96	4
TAP	13	144	4
TAP	13	192	3
TAP	13	240	3
TAP	13	288	1
TAP	13	336	1
TTP	14	0	6	B	0	M1
TTP	14	0	7	B	0	M1
TTP	14	0	7	E	0	M1
TTP	14	96	4	B	0	M1
TTP	14	96	5	B	0	M1
TTP	14	96	5	E	0	M1
TTP	14	192	2	B	0	M1
TTP	14	192	3	B	0	M1
TTP	14	192	3	E	0	M1
TTP	14	288	0	B	0	M1
TTP	14	288	1	B	0	M1
TTP	14	288	1	E	0	M1
HLD	15	0	5	96
TAP	15	96	4
HLD	15	192	3	96
TAP	15	288	4
HLD	16	0	6	96
TAP	16	96	5
TAP	16	192	4
TAP	16	240	4
TAP	16	288	3
TAP	16	288	5
HLD	17	0	2	96
HLD	17	96	3	96
HLD	17	192	4	96
HLD	17	288	5	96
TAP	18	0	4
STR	18	96	6
SI_	18	96	6	96	96	3
HLD	19	0	2	96
TAP	19	96	3
HLD	19	192	4	96
TAP	19	288	3
HLD	20	0	1	96
TAP	20	96	2
TAP	20	192	3
TAP	20	240	3
TAP	20	288	2
TAP	20	288	4
HLD	21	0	1	96
HLD	21	96	3	96
HLD	21	192	4	96
STR	21	288	6
SSL	21	288	6	96	288	2
HLD	23	0	1	96
TAP	23	96	2
HLD	23	192	4	96
TAP	23	288	3
HLD	24	0	1	96
TAP	24	96	2
TAP	24	192	1
TAP	24	240	1
TAP	24	288	0
TAP	24	288	2
HLD	25	0	6	96
HLD	25	96	4	96
HLD	25	192	3	96
STR	25	288	1
SXL	25	288	1	96	288	4
HLD	27	0	6	96
TAP	27	96	5
HLD	27	192	3	96
TAP	27	288	4
HLD	28	0	6	96
TAP	28	96	5
TAP	28	192	0
TAP	28	240	0
TAP	28	288	1
TAP	28	288	7
TAP	29	0	2
TAP	29	48	2
TAP	29	96	3
TAP	29	144	2
TAP	29	192	5
TAP	29	240	5
TAP	29	288	4
TAP	29	336	5
STR	30	0	2
SCL	30	0	2	96	192	5
TTP	31	0	7	E	0	M1
TTP	31	48	1	B	0	M1
TTP	31	96	5	B	0	M1
TTP	31	144	3	E	0	M1
TTP	31	192	0	C	1	M1
STR	32	0	1
SI_	32	0	1	96	96	4
TAP	32	192	5
TAP	32	288	4
TAP	32	288	5
STR	33	0	6
SCL	33	0	6	96	192	1
TAP	34	0	0
TAP	34	96	1
TAP	34	96	7
TAP	34	192	2
TAP	34	192	6
TAP	34	288	3
TAP	34	288	5
HLD	35	0	4	192
TTP	35	192	0	C	0	M1
STR	36	0	6
SI_	36	0	6	96	96	3
TAP	36	192	2
TAP	36	288	2
TAP	36	288	3
TAP	37	0	1
TAP	37	0	4
STR	37	96	0
SI_	37	96	0	96	96	4
TAP	38	0	5
TAP	38	96	4
TAP	38	96	5
TAP	38	192	2
TAP	38	288	2
TAP	38	288	3
TAP	39	0	4
TAP	39	48	4
TAP	39	96	3
BRK	39	192	2
BRK	39	192	5
TAP	39	288	3
TAP	39	288	4
STR	40	0	1
SI_	40	0	1	96	96	4
STR	40	192	6
SI_	40	192	6	96	96	3
THO	41	0	0	192	C	1	M1
TAP	41	288	0
TAP	41	288	1
TAP	41	336	7
XHO	42	0	6	96
TAP	42	96	5
TAP	42	144	4
HLD	42	192	3	96
TAP	42	288	4
TAP	42	336	5
STR	43	0	3
SI_	43	0	3	96	48	7
STR	43	0	6
SI_	43	0	6	96	48	4
BRK	43	192	0
BRK	43	192	5
TAP	43	288	3
TAP	43	288	4
TAP	44	0	5
TAP	44	24	4
TAP	44	48	5
TAP	44	96	2
TAP	44	120	3
TAP	44	144	2
TAP	44	192	1
TAP	44	240	1
STR	44	288	0
SXR	44	288	0	96	192	4
TAP	44	336	0
TAP	45	288	5
TAP	45	336	4
TAP	46	0	3
HLD	46	0	6	96
TAP	46	96	7
TAP	46	144	0
HLD	46	192	1	96
TAP	46	288	3
TTP	47	0	6	E	0	M1
TTP	47	48	5	E	0	M1
TTP	47	96	0	C	0	M1
TTP	47	144	3	E	0	M1
TTP	47	192	2	E	0	M1
TAP	47	288	0
TAP	47	288	7
TAP	48	0	1
TAP	48	48	1
TAP	48	96	3
TAP	48	144	2
TAP	48	192	5
TAP	48	240	5
TAP	48	288	4
TAP	48	336	6
TTP	49	0	0	B	0	M1
TTP	49	0	7	B	0	M1
TTP	49	96	0	C	0	M1
TTP	49	192	3	B	0	M1
TTP	49	192	4	B	0	M1
TAP	49	288	6
TAP	49	288	7
TAP	49	336	0
XHO	50	0	1	96
TAP	50	96	2
TAP	50	144	3
HLD	50	192	4	96
TAP	50	288	3
TAP	50	336	2
STR	51	0	1
SI_	51	0	1	96	48	3
STR	51	0	4
SI_	51	0	4	96	48	0
BRK	51	192	2
BRK	51	192	7
TAP	51	288	3
TAP	51	288	4
TAP	52	0	2
TAP	52	24	3
TAP	52	48	2
TAP	52	96	5
TAP	52	120	4
TAP	52	144	5
TAP	52	192	6
TAP	52	240	6
STR	52	288	7
SXL	52	288	7	96	192	3
TAP	52	336	7
TAP	53	288	2
TAP	53	336	3
HLD	54	0	1	96
TAP	54	0	4
TAP	54	96	0
TAP	54	144	7
HLD	54	192	6	96
TAP	54	288	4
TTP	55	0	1	E	0	M1
TTP	55	48	6	B	0	M1
TTP	55	96	2	B	0	M1
TTP	55	144	5	E	0	M1
TTP	55	192	0	C	1	M1
TAP	56	0	6
TAP	56	48	6
TAP	56	96	5
TAP	56	96	7
TAP	56	192	1
TAP	56	240	1
TAP	56	288	0
TAP	56	288	2
TTP	57	0	0	B	0	M1
TTP	57	0	0	E	0	M1
TTP	57	0	7	B	0	M1
TTP	57	96	1	B	0	M1
TTP	57	96	2	B	0	M1
TTP	57	96	2	E	0	M1
TTP	57	192	5	B	0	M1
TTP	57	192	6	B	0	M1
TTP	57	192	6	E	0	M1
TTP	57	288	3	B	0	M1
TTP	57	288	4	B	0	M1
TTP	57	288	4	E	0	M1
STR	58	0	0
SXL	58	0	0	96	96	2
STR	58	0	7
SXR	58	0	7	96	96	5
TAP	58	288	0
TAP	58	288	7
BRK	59	0	1
BRK	59	0	6
TAP	59	288	2
TAP	59	288	3
XHO	60	0	1	192
XHO	60	0	4	192
TAP	60	288	4
TAP	60	288	5
HLD	61	0	3	192
HLD	61	0	6	192
TAP	61	288	2
TAP	61	288	3
HLD	62	0	1	96
HLD	62	0	4	96
HLD	62	192	3	96
HLD	62	192	6	96
TAP	63	0	5
TAP	63	0	6
TAP	63	96	3
TAP	63	96	4
TAP	63	192	1
TAP	63	192	2
BRK	63	288	0
BST	63	288	7
SCL	63	288	7	96	960	0
TTP	64	0	0	E	0	M1
TTP	65	0	0	C	0	M1
TTP	66	0	4	E	0	M1
TAP	67	0	3
TAP	67	96	3
TAP	67	192	3
TAP	67	192	4
TAP	67	240	3
TAP	67	240	4
TAP	67	288	3
TAP	67	288	4
TAP	68	0	1
TAP	68	48	1
TAP	68	96	3
TAP	68	144	3
TAP	68	192	2
TAP	68	216	3
TAP	68	240	2
TAP	68	288	1
TAP	68	288	4
TAP	69	0	6
TAP	69	48	6
TAP	69	96	4
TAP	69	144	4
TAP	69	192	5
TAP	69	216	4
TAP	69	240	5
TAP	69	288	3
TAP	69	288	6
TAP	70	0	2
TAP	70	24	3
TAP	70	48	2
TAP	70	96	1
TAP	70	96	4
TAP	70	192	5
TAP	70	216	4
TAP	70	240	5
TAP	70	288	3
TAP	70	288	6
TAP	71	0	0
TAP	71	48	0
TAP	71	96	7
TAP	71	120	0
TAP	71	144	7
BRK	71	192	1
BRK	71	192	6
BRK	71	288	3
BRK	71	288	4
HLD	72	0	1	96
TAP	72	0	3
TAP	72	96	2
TAP	72	144	3
HLD	72	192	4	96
TAP	72	288	3
TAP	73	0	2
TAP	73	0	3
TAP	73	48	1
STR	73	96	0
SI_	73	96	0	96	96	4
TTP	74	0	6	E	0	M1
TTP	74	96	0	E	0	M1
TTP	74	192	2	E	0	M1
TTP	74	288	4	E	0	M1
TTP	75	0	3	B	0	M1
TTP	75	0	4	B	0	M1
TTP	75	96	0	C	0	M1
TTP	75	192	0	B	0	M1
TTP	75	192	7	B	0	M1
TAP	75	288	4
TAP	75	288	5
HLD	76	0	6	96
TAP	76	96	5
TAP	76	144	4
HLD	76	192	3	96
TAP	76	288	4
TAP	77	0	4
TAP	77	0	5
TAP	77	48	6
STR	77	96	7
SI_	77	96	7	96	96	3
TAP	78	0	2
TAP	78	0	3
TAP	78	96	0
TAP	78	96	1
TAP	78	192	6
TAP	78	192	7
STR	78	288	4
SCL	78	288	4	96	288	5
TAP	78	288	5
TTP	79	0	0	C	1	M1
TAP	80	0	2
TAP	80	48	2
TAP	80	96	4
TAP	80	144	4
TAP	80	192	0
TAP	80	240	0
TAP	80	288	0
TAP	80	288	7
XTP	81	0	4
XTP	81	0	6
XTP	81	72	1
XTP	81	72	3
XTP	81	144	0
XTP	81	144	7
BRK	81	192	1
BRK	81	192	6
TAP	81	288	3
TAP	81	288	4
HLD	82	0	2	384
TAP	82	0	5
TAP	82	192	3
TAP	82	336	3
HLD	83	0	3	384
TAP	83	192	4
TAP	83	336	4
HLD	84	0	4	384
TAP	84	192	5
TAP	84	336	5
STR	85	0	5
SCL	85	0	5	96	192	2
TAP	86	0	2
TAP	86	0	3
TAP	86	96	2
TAP	86	96	3
TAP	86	192	2
TAP	86	192	4
TAP	86	288	3
TAP	86	288	5
TAP	87	0	4
TAP	87	0	5
TAP	87	96	4
TAP	87	96	5
TAP	87	192	3
TAP	87	192	5
TAP	87	288	2
TAP	87	288	4
TAP	88	0	1
TAP	88	48	1
TAP	88	96	3
TAP	88	192	6
TAP	88	240	6
TAP	88	288	4
TTP	89	0	0	B	0	M1
TTP	89	0	7	B	0	M1
TTP	89	96	0	C	0	M1
TTP	89	192	3	B	0	M1
TTP	89	192	4	B	0	M1
TAP	89	288	6
TAP	89	336	7
HLD	90	0	0	96
TAP	90	0	5
TAP	90	96	1
TAP	90	144	2
HLD	90	192	3	96
TAP	90	288	2
STR	91	0	1
SI_	91	0	1	96	48	4
STR	91	0	5
SI_	91	0	5	96	48	0
BRK	91	192	2
BRK	91	192	6
TAP	91	288	3
TAP	91	288	4
TAP	92	0	5
TAP	92	24	4
TAP	92	48	5
TAP	92	96	2
TAP	92	120	3
TAP	92	144	2
TAP	92	192	1
HLD	92	240	1	336
STR	92	288	0
SXR	92	288	0	96	192	5
TAP	92	336	0
TAP	93	288	6
TAP	93	288	7
TAP	93	336	5
TAP	94	0	3
TAP	94	0	4
TAP	94	96	2
TAP	94	96	3
TAP	94	144	1
TAP	94	192	0
TAP	94	192	7
TAP	94	288	6
TAP	94	288	7
TAP	94	336	5
STR	95	0	2
SXR	95	0	2	96	192	7
STR	95	0	4
SXL	95	0	4	96	192	7
TAP	96	0	1
TAP	96	48	1
TAP	96	96	0
TAP	96	144	2
TAP	96	192	5
TAP	96	240	5
TAP	96	288	4
TAP	96	336	6
XTP	97	0	5
XTP	97	0	6
XTP	97	96	0
XTP	97	96	7
XTP	97	192	1
XTP	97	192	2
XTP	97	288	3
XTP	97	288	4
STR	98	0	7
SI_	98	0	7	96	48	5
STR	98	96	1
SI_	98	96	1	96	48	3
STR	98	192	0
SI_	98	192	0	96	48	4
XHO	99	0	0	192
XHO	99	0	5	192
STR	99	288	3
SXR	99	288	3	96	192	0
STR	99	288	4
SXL	99	288	4	96	192	7
BRK	100	288	1
BRK	100	288	6
XTP	101	0	0
XTP	101	0	7
TAP	101	48	0
TAP	101	48	7
TAP	101	96	0
TAP	101	96	7
TAP	101	144	0
TAP	101	144	7
TAP	101	192	0
TAP	101	192	7
TTP	101	288	0	C	1	M1
TTP	101	288	1	B	0	M1
TTP	101	288	2	B	0	M1
TTP	101	288	5	B	0	M1
TTP	101	288	6	B	0	M1

T_REC_TAP	344
T_REC_BRK	21
T_REC_XTP	16
T_REC_HLD	61
T_REC_XHO	6
T_REC_STR	34
T_REC_BST	1
T_REC_XST	0
T_REC_TTP	70
T_REC_THO	2
T_REC_SLD	35
T_REC_ALL	590
T_NUM_TAP	464
T_NUM_BRK	22
T_NUM_HLD	69
T_NUM_SLD	35
T_NUM_ALL	590
T_JUDGE_TAP	486
T_JUDGE_HLD	187
T_JUDGE_SLD	35
T_JUDGE_ALL	708
TTM_EACHPAIRS	113
TTM_SCR_TAP	232000
TTM_SCR_BRK	57200
TTM_SCR_HLD	69000
TTM_SCR_SLD	52500
TTM_SCR_ALL	410700
TTM_SCR_S	396250
TTM_SCR_SS	408500
TTM_RAT_ACV	10053

