VERSION	0.00.00	1.03.00
FES_MODE	0
BPM_DEF	160.000	160.000	160.000	160.000
MET_DEF	4	4
RESOLUTION	384
CLK_DEF	384
COMPATIBLE_CODE	MA2

BPM	0	0	160.000
MET	0	0	4	4

STR	1	0	3
SI_	1	0	3	96	288	0
TAP	2	192	7
STR	3	0	7
SI_	3	0	7	96	288	4
TAP	4	192	3
TAP	5	0	4
TAP	5	96	4
TAP	5	192	3
TAP	5	288	3
TAP	6	0	3
TAP	6	0	4
XTP	6	192	2
XTP	6	192	5
TAP	7	0	2
TAP	7	96	2
TAP	7	192	2
TAP	7	192	3
TAP	8	0	5
TAP	8	96	5
TAP	8	192	4
TAP	8	192	5
TAP	9	0	3
TAP	9	96	3
TAP	9	192	2
TAP	9	288	2
TAP	10	0	1
TAP	10	96	1
TAP	10	192	1
TAP	10	192	3
TAP	11	0	1
TAP	11	96	1
TAP	11	192	0
TAP	11	192	1
TAP	12	0	6
TAP	12	96	6
TAP	12	192	6
TAP	12	192	7
TAP	13	0	5
TAP	13	96	4
TAP	13	192	3
TAP	13	288	2
XTP	14	0	2
XTP	14	0	5
XTP	14	96	2
XTP	14	96	5
XTP	14	192	2
XTP	14	192	5
HLD	15	0	2	192
TAP	15	192	3
TAP	15	288	3
TAP	16	0	2
TAP	16	0	3
TAP	16	192	3
TAP	16	192	4
HLD	17	0	5	192
TAP	17	192	4
TAP	17	288	4
TAP	18	0	4
TAP	18	0	5
TAP	18	192	3
TAP	18	192	6
HLD	19	0	6	192
TAP	19	192	7
TAP	19	288	7
TAP	20	0	6
TAP	20	0	7
TAP	20	192	0
TAP	20	192	7
HLD	21	0	1	192
TAP	21	192	0
TAP	21	288	0
XTP	22	0	1
XTP	22	0	7
XTP	22	192	0
XTP	22	192	6
HLD	23	0	5	192
TAP	23	192	4
TAP	23	288	4
TAP	24	0	3
TAP	24	96	3
TAP	24	192	2
TAP	24	192	4
HLD	25	0	2	192
TAP	25	192	3
TAP	25	288	3
TAP	26	0	4
TAP	26	96	4
TAP	26	192	3
TAP	26	192	5
HLD	27	0	6	192
TAP	27	192	7
TAP	27	288	7
TAP	28	0	0
TAP	28	96	0
TAP	28	192	1
TAP	28	192	7
TAP	29	0	0
TAP	29	96	0
TAP	29	192	7
STR	29	288	0
SI_	29	288	0	96	192	3
STR	29	288	7
SI_	29	288	7	96	192	4
XTP	31	0	2
XTP	31	0	5
XTP	31	96	2
XTP	31	96	5
BRK	31	192	2
BRK	31	192	5
TTP	32	0	4	B	0	L1
TTP	32	0	5	E	0	L1
TTP	32	192	1	B	0	L1
TTP	32	192	2	E	0	L1
TTP	33	0	6	B	0	L1
TTP	33	96	0	C	0	L1
TTP	33	192	2	B	0	L1
TTP	34	0	1	B	0	L1
TTP	34	0	1	E	0	L1
TTP	34	192	5	B	0	L1
TTP	34	192	6	B	0	L1
TTP	35	0	2	B	0	L1
TTP	35	0	3	E	0	L1
TTP	35	192	0	C	0	L1
TTP	36	0	3	B	0	L1
TTP	36	0	3	E	0	L1
TTP	36	192	6	B	0	L1
TTP	36	192	6	E	0	L1
TTP	37	0	1	B	0	L1
TTP	37	96	0	C	0	L1
TTP	37	192	5	B	0	L1
TTP	38	0	6	B	0	L1
TTP	38	0	6	E	0	L1
TTP	38	192	2	B	0	L1
TTP	38	192	2	E	0	L1
TTP	39	0	3	B	0	L1
TTP	39	0	4	B	0	L1
TTP	39	192	2	B	0	L1
TTP	39	192	5	B	0	L1
THO	40	0	0	384	C	1	L1
XTP	42	0	0
TAP	42	96	1
TAP	42	192	2
TAP	42	192	3
TAP	42	288	2
TAP	42	288	3
XTP	43	0	4
XTP	43	96	3
XTP	43	96	4
XTP	43	192	2
XTP	43	192	5
HLD	44	0	6	96
TAP	44	96	7
HLD	44	192	1	96
TAP	44	288	0
TAP	45	0	0
TAP	45	0	1
TAP	45	96	2
TAP	45	96	7
TAP	45	192	3
TAP	45	192	6
TAP	46	0	7
TAP	46	96	6
TAP	46	192	4
TAP	46	192	5
TAP	46	288	4
TAP	46	288	5
TAP	47	0	3
TAP	47	96	3
TAP	47	96	4
TAP	47	192	2
TAP	47	192	5
HLD	48	0	1	96
TAP	48	96	0
HLD	48	192	6	96
TAP	48	288	7
XTP	49	0	0
XTP	49	0	7
XTP	49	96	1
XTP	49	96	6
BRK	49	192	2
BRK	49	192	5
TAP	50	0	0
TAP	50	96	1
TAP	50	96	7
TAP	50	192	2
TAP	50	288	1
TAP	50	288	3
TAP	51	0	4
TAP	51	96	4
TAP	51	96	5
TAP	51	192	3
TAP	51	192	6
HLD	52	0	5	96
TAP	52	96	4
HLD	52	192	2	96
TAP	52	288	3
TAP	53	0	2
TAP	53	0	3
TAP	53	96	1
TAP	53	96	4
XTP	53	192	0
XTP	53	192	5
TAP	54	0	6
TAP	54	0	7
TAP	54	96	5
TAP	54	192	0
TAP	54	192	1
TAP	54	288	2
TAP	55	0	3
TAP	55	0	4
TAP	55	96	3
TAP	55	96	4
BRK	55	192	1
BRK	55	192	6
TAP	56	0	2
TAP	56	0	3
TAP	56	96	2
TAP	56	96	3
TAP	56	192	4
TAP	56	192	5
TAP	56	288	4
TAP	56	288	5
HLD	57	0	3	96
HLD	57	0	4	96
XTP	57	192	2
XTP	57	192	5
STR	58	0	0
SI_	58	0	0	96	192	3
STR	58	0	7
SI_	58	0	7	96	192	4
TTP	59	0	0	C	1	L1
TTP	60	0	4	B	0	L1
TTP	60	0	5	B	0	L1
TTP	60	192	2	B	0	L1
TTP	60	192	3	B	0	L1
TTP	61	0	6	B	0	L1
TTP	61	0	6	E	0	L1
TTP	61	192	1	B	0	L1
TTP	61	192	2	E	0	L1
TTP	62	0	5	E	0	L1
TTP	62	96	4	E	0	L1
TTP	62	192	3	E	0	L1
THO	63	0	0	192	C	1	L1
XST	64	0	0
SCR	64	0	0	96	288	3
TAP	65	192	4
STR	66	0	4
SCR	66	0	4	96	288	7
XTP	67	192	0
XTP	67	192	7
TAP	68	0	1
TAP	68	96	1
TAP	68	192	2
TAP	68	288	2
TAP	69	0	2
TAP	69	0	3
TAP	69	96	2
TAP	69	96	3
TAP	69	192	2
TAP	69	192	3
TAP	70	0	5
TAP	70	96	5
TAP	70	192	6
TAP	70	288	6
HLD	71	0	0	96
HLD	71	0	7	96
XTP	71	192	1
XTP	71	192	6
TAP	72	0	2
TAP	72	96	2
TAP	72	96	3
TAP	72	192	5
TAP	72	288	4
TAP	72	288	5
TAP	73	0	3
TAP	73	48	3
TAP	73	96	3
TAP	73	192	2
TAP	73	192	4
TAP	74	0	5
TAP	74	96	4
TAP	74	96	5
TAP	74	192	2
TAP	74	288	2
TAP	74	288	3
TAP	75	0	1
TAP	75	48	1
TAP	75	96	1
XTP	75	192	0
XTP	75	192	6
TAP	76	0	6
TAP	76	96	5
TAP	76	192	4
TAP	76	240	4
TAP	76	288	4
TAP	77	0	3
TAP	77	96	2
TAP	77	192	1
TAP	77	240	1
TAP	77	288	1
TAP	78	0	0
TAP	78	0	7
TAP	78	96	0
TAP	78	96	7
TAP	78	192	1
TAP	78	192	6
STR	78	288	2
SLL	78	288	2	96	288	3
STR	78	288	5
SLR	78	288	5	96	288	4
THO	80	0	0	384	C	1	L1
HLD	82	0	1	384
HLD	83	0	2	384
HLD	84	0	3	384
TAP	85	0	4
TAP	85	192	3
TAP	85	192	4
TAP	86	0	5
TAP	86	96	5
TAP	86	192	5
TAP	87	0	3
TAP	87	96	3
TAP	87	192	3
TAP	88	0	4
TAP	88	96	5
TAP	88	192	3
TAP	88	288	2
HLD	89	0	3	96
HLD	89	0	4	96
XTP	89	192	2
XTP	89	192	5
TAP	90	0	2
TAP	90	96	1
TAP	90	96	3
TAP	90	192	5
TAP	90	288	4
TAP	90	288	6
TAP	91	0	7
TAP	91	48	7
TAP	91	96	7
TAP	91	192	0
TAP	91	192	6
TAP	92	0	5
TAP	92	96	4
TAP	92	96	6
TAP	92	192	2
TAP	92	288	1
TAP	92	288	3
TAP	93	0	0
TAP	93	48	0
TAP	93	96	0
TAP	93	192	1
TAP	93	192	7
TAP	94	0	2
TAP	94	0	3
TAP	94	96	1
TAP	94	96	4
TAP	94	192	4
TAP	94	192	5
TAP	94	288	3
TAP	94	288	6
TAP	95	0	3
TAP	95	0	4
TAP	95	96	2
TAP	95	96	5
BRK	95	192	0
BRK	95	192	7
HLD	96	0	1	96
HLD	96	0	3	96
HLD	96	192	4	96
HLD	96	192	6	96
TAP	97	0	2
TAP	97	0	3
TAP	97	96	1
TAP	97	96	4
XTP	97	192	0
XTP	97	192	5
XTP	97	288	6
XTP	97	288	7
HLD	98	0	4	96
HLD	98	0	5	96
HLD	98	192	2	96
HLD	98	192	3	96
TAP	99	0	4
TAP	99	96	3
TAP	99	96	5
XTP	99	192	2
XTP	99	192	6
XTP	99	288	1
XTP	99	288	7
HLD	100	0	0	192
HLD	100	192	7	384
THO	101	0	0	192	C	1	L1

T_REC_TAP	243
T_REC_BRK	8
T_REC_XTP	46
T_REC_HLD	32
T_REC_XHO	0
T_REC_STR	9
T_REC_BST	0
T_REC_XST	1
T_REC_TTP	41
T_REC_THO	4
T_REC_SLD	10
T_REC_ALL	394
T_NUM_TAP	340
T_NUM_BRK	8
T_NUM_HLD	36
T_NUM_SLD	10
T_NUM_ALL	394
T_JUDGE_TAP	348
T_JUDGE_HLD	128
T_JUDGE_SLD	10
T_JUDGE_ALL	486
TTM_EACHPAIRS	101
TTM_SCR_TAP	170000
TTM_SCR_BRK	20800
TTM_SCR_HLD	36000
TTM_SCR_SLD	15000
TTM_SCR_ALL	241800
TTM_SCR_S	233800
TTM_SCR_SS	241000
TTM_RAT_ACV	10033

