VERSION	0.00.00	1.03.00
FES_MODE	0
BPM_DEF	160.000	160.000	160.000	160.000
MET_DEF	4	4
RESOLUTION	384
CLK_DEF	384
COMPATIBLE_CODE	MA2

BPM	0	0	160.000
MET	0	0	4	4

TAP	7	0	3
TAP	8	0	3
TAP	9	0	4
XTP	10	0	3
XTP	10	0	4
TAP	11	0	4
TAP	12	0	4
TAP	13	0	3
XTP	14	0	3
XTP	14	0	4
TAP	15	0	2
TAP	16	0	2
TAP	17	0	1
TAP	17	192	1
XTP	18	0	1
TAP	19	0	0
TAP	20	0	0
TAP	21	0	7
TAP	21	192	7
BRK	22	0	7
TAP	23	0	6
TAP	24	0	6
TAP	25	0	5
TAP	25	192	5
XTP	26	0	5
TAP	27	0	4
TAP	28	0	4
TAP	29	0	3
TAP	29	192	3
HLD	30	0	3	384
HLD	30	0	4	384
TTP	32	0	5	B	0	L1
TTP	33	0	6	B	0	L1
TTP	34	0	7	B	0	L1
TTP	35	0	0	B	0	L1
TTP	36	0	1	B	0	L1
TTP	37	0	2	B	0	L1
TTP	38	0	3	B	0	L1
TTP	38	0	4	B	0	L1
TTP	39	0	2	B	0	L1
TTP	39	0	5	B	0	L1
THO	40	0	0	384	C	1	L1
TAP	42	0	7
TAP	42	192	7
TAP	43	0	7
TAP	43	96	7
TAP	43	192	7
TAP	44	0	6
TAP	44	96	6
TAP	44	192	6
HLD	45	0	6	192
TAP	46	0	5
TAP	46	192	5
TAP	47	0	5
TAP	47	96	5
TAP	47	192	5
TAP	48	0	4
TAP	48	96	4
TAP	48	192	4
TAP	49	0	3
TAP	49	0	4
BRK	49	192	3
BRK	49	192	4
TAP	50	0	3
TAP	50	192	3
TAP	51	0	3
TAP	51	96	3
TAP	51	192	3
TAP	52	0	2
TAP	52	96	2
TAP	52	192	2
HLD	53	0	2	192
TAP	54	0	1
TAP	54	192	1
TAP	55	0	1
TAP	55	96	1
TAP	55	192	1
TAP	56	0	0
TAP	56	96	0
TAP	56	192	0
HLD	57	0	0	192
TAP	58	0	7
TAP	58	96	7
TAP	58	192	7
HLD	59	0	7	192
STR	60	0	0
SI_	60	0	0	96	288	4
STR	62	0	7
SI_	62	0	7	96	288	3
STR	64	0	1
SI_	64	0	1	96	288	5
STR	66	0	6
SI_	66	0	6	96	288	2
TAP	68	0	1
TAP	68	192	1
TAP	69	0	2
TAP	69	192	2
TAP	70	0	3
TAP	70	192	3
TAP	71	0	3
TAP	71	0	4
TAP	72	0	4
TAP	72	192	4
TAP	73	0	5
TAP	73	192	5
TAP	74	0	6
TAP	74	192	6
TAP	75	0	7
TAP	75	96	7
XTP	75	192	7
TAP	76	0	0
TAP	76	192	0
TAP	77	0	1
TAP	77	192	1
TAP	78	0	2
TAP	78	192	2
TAP	79	0	3
TAP	79	96	3
TAP	79	192	3
HLD	80	0	3	192
HLD	80	0	4	192
BRK	81	0	3
BRK	81	0	4
TTP	82	0	3	B	0	L1
TTP	83	0	4	B	0	L1
TTP	84	0	2	B	0	L1
TTP	85	0	5	B	0	L1
TTP	86	0	3	B	0	L1
TTP	86	0	4	B	0	L1
TTP	87	0	2	B	0	L1
TTP	87	0	5	B	0	L1
THO	88	0	0	384	C	1	L1
TAP	90	0	7
TAP	90	192	7
TAP	91	0	6
TAP	91	96	6
TAP	91	192	6
TAP	91	192	7
TAP	92	0	5
TAP	92	96	5
TAP	92	192	5
HLD	93	0	3	192
HLD	93	0	4	192
TAP	94	0	3
TAP	94	192	3
TAP	95	0	2
TAP	95	96	2
TAP	95	192	2
TAP	95	192	3
TAP	96	0	1
TAP	96	96	1
TAP	96	192	1
HLD	97	0	0	192
HLD	97	0	7	192
TAP	98	0	7
TAP	98	96	7
TAP	98	192	7
HLD	99	0	0	192
HLD	99	0	6	192
TAP	100	0	0
TAP	100	96	0
TAP	100	192	0
HLD	101	0	1	192
HLD	101	0	7	192
XTP	101	288	7

T_REC_TAP	108
T_REC_BRK	5
T_REC_XTP	8
T_REC_HLD	16
T_REC_XHO	0
T_REC_STR	4
T_REC_BST	0
T_REC_XST	0
T_REC_TTP	18
T_REC_THO	2
T_REC_SLD	4
T_REC_ALL	165
T_NUM_TAP	138
T_NUM_BRK	5
T_NUM_HLD	18
T_NUM_SLD	4
T_NUM_ALL	165
T_JUDGE_TAP	143
T_JUDGE_HLD	88
T_JUDGE_SLD	4
T_JUDGE_ALL	235
TTM_EACHPAIRS	14
TTM_SCR_TAP	69000
TTM_SCR_BRK	13000
TTM_SCR_HLD	18000
TTM_SCR_SLD	6000
TTM_SCR_ALL	106000
TTM_SCR_S	102350
TTM_SCR_SS	105500
TTM_RAT_ACV	10047

