VERSION	0.00.00	1.03.00
FES_MODE	0
BPM_DEF	262.000	262.000	262.000	262.000
MET_DEF	4	4
RESOLUTION	384
CLK_DEF	288
COMPATIBLE_CODE	MA2

BPM	0	0	262.000
MET	0	0	4	3

TAP	2	96	0
TAP	2	96	2
TAP	2	192	6
TAP	2	240	4
TAP	2	336	1
TAP	3	0	3
TAP	3	96	4
TAP	3	96	5
TAP	3	192	2
TAP	3	192	3
TAP	3	288	5
TAP	3	288	7
TAP	4	0	1
TAP	4	48	3
TAP	4	144	6
TAP	4	192	4
TAP	4	288	2
TAP	4	288	3
TAP	5	0	4
TAP	5	0	5
HLD	5	96	0	576
HLD	5	96	1	576
XTP	6	304	2
XTP	6	304	7
XTP	6	320	3
XTP	6	320	6
XHO	6	336	4	240
XHO	6	336	5	240
TAP	8	96	3
TAP	8	96	5
TAP	8	192	6
TAP	8	288	7
TAP	9	0	0
TAP	9	0	2
TAP	9	96	1
TAP	9	192	0
TAP	9	288	4
TAP	9	288	7
TAP	10	0	3
TAP	10	96	2
TAP	10	192	1
TAP	10	192	3
TAP	10	288	4
TAP	11	0	5
TAP	11	96	2
TAP	11	96	6
TAP	11	192	1
TAP	11	288	0
TAP	12	0	5
TAP	12	0	7
TAP	12	96	6
TAP	12	192	7
TAP	12	288	0
TAP	12	288	3
TAP	13	0	4
TAP	13	96	5
TAP	13	192	4
TAP	13	192	6
TAP	13	288	3
TAP	14	0	2
TAP	14	96	1
TAP	14	96	6
TAP	14	192	5
TAP	14	288	4
TAP	15	0	1
TAP	15	0	3
TAP	15	96	2
TAP	15	192	3
TAP	15	288	4
TAP	15	288	7
TAP	16	0	0
TAP	16	96	1
TAP	16	192	0
TAP	16	192	2
TAP	16	288	7
TAP	17	0	6
TAP	17	96	3
TAP	17	96	5
TAP	17	192	1
TAP	17	288	2
TAP	17	288	4
TAP	18	0	6
TAP	18	96	3
TAP	18	96	5
TAP	18	192	1
STR	18	288	2
SUR	18	288	2	96	192	3
TAP	18	288	4
BRK	19	192	5
TAP	20	96	1
TAP	20	96	7
TAP	20	192	2
TAP	20	240	2
TAP	20	288	3
TAP	21	0	4
TAP	21	0	6
TAP	21	96	5
TAP	21	192	4
TAP	21	288	0
TAP	21	288	3
TAP	22	0	7
TAP	22	48	7
TAP	22	96	6
TAP	22	192	5
TAP	22	192	7
TAP	22	288	0
TAP	23	0	1
TAP	23	96	2
TAP	23	96	6
TAP	23	192	5
TAP	23	240	5
TAP	23	288	4
TAP	24	0	1
TAP	24	0	3
TAP	24	96	2
TAP	24	144	2
TAP	24	192	3
TAP	24	288	4
TAP	24	288	7
TAP	25	0	0
TAP	25	96	1
TAP	25	192	0
TAP	25	192	2
TAP	25	288	7
TAP	26	0	6
TAP	26	96	2
TAP	26	96	5
TAP	26	192	1
TAP	26	240	1
TAP	26	288	0
TAP	27	0	5
TAP	27	0	7
TAP	27	96	6
TAP	27	192	7
TAP	27	288	0
TAP	27	288	3
TAP	28	0	4
TAP	28	48	4
TAP	28	96	5
TAP	28	192	0
TAP	28	192	2
TAP	28	288	7
TAP	29	0	6
TAP	29	96	3
TAP	29	96	5
TAP	29	192	1
TAP	29	288	2
TAP	29	288	4
TAP	30	0	6
TAP	30	96	3
TAP	30	96	5
TAP	30	192	2
TAP	30	288	1
TAP	30	288	3
TAP	31	0	7
TAP	31	96	4
TAP	31	96	6
TAP	31	192	0
TAP	31	288	1
TAP	31	288	3
TAP	32	0	7
BRK	32	96	0
BRK	32	96	6
TAP	32	192	7
STR	32	288	1
SXR	32	288	1	96	192	2
TAP	33	96	5
TAP	33	192	6
TAP	33	288	1
TAP	33	288	7
TAP	34	0	0
STR	34	96	6
SXL	34	96	6	96	192	5
TAP	34	288	2
TAP	35	0	1
TAP	35	96	0
TAP	35	192	6
TAP	35	240	6
TAP	35	288	4
TAP	36	0	7
TAP	36	96	1
TAP	36	144	1
TAP	36	192	3
STR	36	288	1
SCR	36	288	1	96	96	4
TAP	37	0	0
TAP	37	96	7
STR	37	192	6
SCL	37	192	6	96	96	3
TAP	37	288	7
TAP	38	0	0
TAP	38	96	2
TAP	38	96	4
TAP	38	192	1
TAP	38	192	5
TAP	38	288	0
TAP	38	288	6
TAP	39	0	1
TAP	39	0	7
TAP	39	96	2
TAP	39	96	6
TAP	39	192	3
TAP	39	192	5
TAP	39	288	4
TAP	39	288	6
TAP	40	0	3
TAP	40	0	7
TAP	40	96	0
TAP	40	96	2
TAP	40	192	1
TAP	40	192	3
TAP	40	288	0
TAP	40	288	4
TAP	41	0	5
TAP	41	0	7
STR	41	96	0
SUL	41	96	0	96	96	4
TAP	41	96	6
TAP	42	0	1
STR	42	0	7
SUR	42	0	7	96	96	3
TAP	43	0	2
TAP	43	0	6
TAP	43	96	1
TAP	43	96	5
TAP	43	192	0
TAP	43	192	4
TAP	43	288	1
TAP	43	288	5
TAP	44	0	2
TAP	44	0	6
BRK	44	96	3
BRK	44	96	7
TAP	44	192	5
TAP	44	240	4
TAP	44	288	3
TTP	45	0	0	E	0	M1
TTP	45	0	7	E	0	M1
TTP	45	96	1	B	0	M1
TTP	45	96	5	B	0	M1
TTP	45	192	3	E	0	M1
TTP	45	192	4	E	0	M1
TAP	45	288	0
TAP	45	288	4
TAP	46	0	2
TAP	46	48	3
TAP	46	96	4
TTP	46	192	0	E	0	M1
TTP	46	192	1	E	0	M1
TTP	46	288	2	B	0	M1
TTP	46	288	6	B	0	M1
TTP	47	0	4	E	0	M1
TTP	47	0	5	E	0	M1
TTP	47	96	0	C	0	M1
TAP	47	192	6
TAP	47	240	5
TAP	47	288	4
TTP	48	0	0	C	0	M1
TAP	48	96	1
TAP	48	144	2
TAP	48	192	3
TAP	48	288	0
TAP	48	288	7
TAP	49	0	4
TAP	49	0	6
TAP	49	96	1
TAP	49	96	3
STR	49	192	0
SUL	49	192	0	96	96	3
STR	49	192	7
SUR	49	192	7	96	96	4
TTP	50	96	0	C	1	M1
TTP	50	96	2	E	0	M1
TTP	50	96	3	E	0	M1
TTP	50	96	6	E	0	M1
TTP	50	96	7	E	0	M1
TTP	51	0	0	C	1	M1
TTP	51	0	1	E	0	M1
TTP	51	0	2	E	0	M1
TTP	51	0	5	E	0	M1
TTP	51	0	6	E	0	M1
TTP	51	288	0	C	1	M1
TTP	51	288	0	E	0	M1
TTP	51	288	3	E	0	M1
TTP	51	288	4	E	0	M1
TTP	51	288	7	E	0	M1
TTP	52	192	0	C	1	M1
TTP	52	192	0	E	0	M1
TTP	52	192	1	E	0	M1
TTP	52	192	4	E	0	M1
TTP	52	192	5	E	0	M1
TTP	53	96	0	C	0	M1
BRK	53	192	0
BRK	53	192	7
TAP	53	288	4
TAP	53	336	6
TAP	54	0	0
TAP	54	96	3
TAP	54	192	1
TTP	54	288	2	E	0	M1
XTP	54	288	7
TTP	55	0	1	E	0	M1
XTP	55	0	6
TTP	55	96	0	E	0	M1
XTP	55	96	5
XTP	55	192	0
TTP	55	192	6	E	0	M1
XTP	55	288	1
TTP	55	288	7	E	0	M1
TTP	56	0	0	E	0	M1
XTP	56	0	2
TAP	56	96	3
TAP	56	96	6
TAP	56	192	1
TAP	56	240	1
TAP	56	288	1
TAP	57	0	4
TAP	57	96	3
TAP	57	96	6
TAP	57	192	0
TAP	57	192	7
TAP	57	288	1
TAP	57	288	4
TAP	58	0	6
TAP	58	48	6
TAP	58	96	6
TAP	58	192	3
TAP	58	288	1
TAP	58	288	4
TAP	59	0	0
TAP	59	0	7
TAP	59	96	2
TAP	59	96	4
TAP	59	192	1
TAP	59	240	1
TAP	59	288	1
TAP	60	0	3
TAP	60	0	5
TAP	60	96	6
TAP	60	144	6
TAP	60	192	6
XTP	60	288	0
TTP	60	288	6	E	0	M1
XTP	61	0	1
TTP	61	0	7	E	0	M1
TTP	61	96	0	E	0	M1
XTP	61	96	2
TTP	61	192	2	E	0	M1
XTP	61	192	7
TTP	61	288	1	E	0	M1
XTP	61	288	6
TTP	62	0	0	E	0	M1
XTP	62	0	5
TAP	62	96	4
TAP	62	192	3
TAP	62	192	4
TAP	62	288	4
TAP	62	288	6
TAP	63	0	2
TAP	63	96	1
TAP	63	96	2
TAP	63	192	2
TAP	63	192	4
TAP	63	288	3
TAP	64	0	3
TAP	64	0	4
TAP	64	96	1
TAP	64	96	3
TAP	64	192	5
TAP	64	288	5
TAP	64	288	6
TAP	65	0	3
TAP	65	0	5
TTP	65	96	0	C	1	M1
TTP	65	96	2	E	0	M1
TTP	65	96	3	E	0	M1
TTP	65	96	5	E	0	M1
TTP	65	96	6	E	0	M1
TTP	66	0	0	C	1	M1
TTP	66	0	0	E	0	M1
TTP	66	0	2	E	0	M1
TTP	66	0	3	E	0	M1
TTP	66	0	7	E	0	M1
TTP	66	288	0	C	1	M1
TTP	66	288	2	E	0	M1
TTP	66	288	3	E	0	M1
TTP	66	288	5	E	0	M1
TTP	66	288	6	E	0	M1
TTP	67	192	0	C	1	M1
TTP	67	192	0	E	0	M1
TTP	67	192	1	E	0	M1
TTP	67	192	5	E	0	M1
TTP	67	192	6	E	0	M1
BST	68	96	2
SXR	68	96	2	96	1920	4
BST	68	96	6
SXR	68	96	6	96	1920	0
BRK	74	96	7
TAP	74	144	0
TAP	74	192	6
TAP	74	240	7
TAP	74	288	6
TAP	74	336	5
BRK	75	0	0
TAP	75	48	7
TAP	75	96	1
TAP	75	144	0
TAP	75	192	1
TAP	75	240	2
BRK	75	288	0
TAP	75	336	7
TAP	76	0	6
TAP	76	48	5
BRK	76	96	7
TAP	76	144	0
TAP	76	192	1
TAP	76	240	2
BRK	76	288	0
TAP	76	336	7
TAP	77	0	6
TAP	77	48	5
BRK	77	96	0
TAP	77	144	1
BRK	77	192	7
TAP	77	240	6
BRK	77	288	1
TAP	77	336	2
BRK	78	0	6
TAP	78	48	5
BRK	78	96	2
TAP	78	144	3
BRK	78	192	5
TAP	78	240	4
BRK	78	288	2
TAP	78	336	1
TAP	79	0	0
TAP	79	48	7
TAP	79	96	6
TAP	79	144	5
TAP	79	192	4
TAP	79	240	3
XTP	79	288	2
XTP	79	288	6
XTP	79	336	1
XTP	79	336	5
XTP	80	0	0
XTP	80	0	4
XTP	80	48	3
XTP	80	48	7
THO	80	96	0	288	C	1	M1
HLD	81	288	6	192
TAP	82	0	0
TAP	82	96	0
TAP	82	192	7
TAP	82	288	2
TAP	82	336	3
TAP	83	0	4
HLD	83	96	1	192
TAP	83	192	7
TAP	83	288	7
TAP	84	0	0
TAP	84	96	5
TAP	84	144	4
TAP	84	192	3
HLD	84	288	7	192
TAP	85	0	2
TAP	85	96	2
HLD	85	192	0	192
TAP	85	288	5
TAP	86	0	5
TAP	86	96	1
TAP	86	96	7
TAP	86	192	0
TAP	86	192	6
TAP	86	288	5
TAP	86	288	7
TAP	87	0	0
TAP	87	0	6
TAP	87	96	1
TAP	87	96	7
TAP	87	192	0
TAP	87	192	2
TAP	87	288	1
TAP	87	288	3
TAP	88	0	7
TAP	88	96	7
TAP	88	192	4
TAP	88	192	6
TAP	88	288	0
TAP	89	0	0
TAP	89	96	3
TAP	89	96	7
TAP	89	192	5
TAP	89	288	5
TAP	90	0	0
TAP	90	0	4
TAP	90	96	2
TAP	90	192	2
STR	90	288	3
SI_	90	288	3	96	96	7
STR	90	288	6
SI_	90	288	6	96	96	4
STR	91	192	1
SI_	91	192	1	96	96	3
STR	91	192	4
SI_	91	192	4	96	96	0
TAP	92	192	3
TAP	92	192	4
TAP	92	288	1
TAP	92	288	2
TAP	93	0	0
TAP	93	0	7
TAP	93	96	5
TAP	93	96	6
TAP	93	192	3
TAP	93	192	4
THO	93	288	0	576	C	1	M1
BRK	95	96	7
TAP	95	192	0
TAP	95	240	6
TAP	95	288	1
TAP	96	0	4
TAP	96	96	1
TAP	96	96	7
TAP	96	192	3
TAP	96	192	5
TAP	96	288	0
TAP	97	0	7
TAP	97	48	1
TAP	97	96	6
TAP	97	192	3
TAP	97	288	0
TAP	97	288	6
TAP	98	0	2
TAP	98	0	4
TAP	98	96	0
TAP	98	96	1
TAP	98	192	4
TAP	98	240	4
TAP	98	288	4
TAP	99	0	6
TAP	99	0	7
TAP	99	96	3
TAP	99	144	3
TAP	99	192	3
TAP	99	288	0
TAP	99	288	2
TAP	100	0	5
TAP	100	0	7
TAP	100	96	3
TAP	100	96	4
TAP	100	192	1
TAP	100	192	6
TTP	101	96	0	C	1	M1
TTP	101	96	0	E	0	M1
TTP	101	96	1	E	0	M1
TTP	101	96	2	E	0	M1
TTP	101	96	3	E	0	M1
TTP	102	0	0	C	1	M1
TTP	102	0	3	E	0	M1
TTP	102	0	4	E	0	M1
TTP	102	0	5	E	0	M1
TTP	102	0	6	E	0	M1
TTP	102	288	0	C	1	M1
TTP	102	288	0	E	0	M1
TTP	102	288	5	E	0	M1
TTP	102	288	6	E	0	M1
TTP	102	288	7	E	0	M1
TTP	103	192	0	C	1	M1
TTP	103	192	2	E	0	M1
TTP	103	192	3	E	0	M1
TTP	103	192	4	E	0	M1
TTP	103	192	5	E	0	M1
TTP	104	96	0	C	0	M1
BRK	104	192	0
BRK	104	192	7
TAP	104	288	1
TAP	104	336	0
TAP	105	0	7
TAP	105	96	6
TAP	105	192	7
XTP	105	288	0
TTP	105	288	6	E	0	M1
XTP	106	0	1
TTP	106	0	7	E	0	M1
TTP	106	96	0	E	0	M1
XTP	106	96	2
TTP	106	192	2	E	0	M1
XTP	106	192	7
TTP	106	288	1	E	0	M1
XTP	106	288	6
TTP	107	0	0	E	0	M1
XTP	107	0	5
TAP	107	96	3
TAP	107	96	4
TAP	107	192	2
TAP	107	240	5
TAP	107	288	1
TAP	107	336	6
XTP	108	0	0
XTP	108	32	7
XTP	108	64	6
XTP	108	96	5
XTP	108	128	4
XTP	108	160	3
XTP	108	192	2
XTP	108	224	1
XTP	108	256	0
XTP	108	288	3
XTP	108	288	7
TAP	109	96	0
TAP	109	96	6
TAP	109	192	2
TAP	109	192	4
TAP	110	0	5
TAP	110	48	4
TAP	110	96	3
TAP	110	240	2
TAP	110	288	3
TAP	110	336	4
TAP	111	0	5
TAP	111	96	3
TAP	111	192	1
TAP	111	240	0
TAP	111	288	7
TAP	112	0	3
TAP	112	96	5
HLD	112	192	1	192
TAP	113	96	5
TAP	113	96	7
TAP	113	192	6
TAP	113	240	7
TAP	113	288	0
TAP	113	336	1
TAP	114	0	0
TAP	114	0	2
TAP	114	96	1
TAP	114	144	0
TAP	114	192	7
TAP	114	240	6
XTP	114	288	5
XTP	114	288	7
XTP	114	320	0
XTP	114	352	1
XTP	115	0	2
XTP	115	32	3
XTP	115	64	4
XTP	115	96	5
XTP	115	128	6
XTP	115	160	7
XTP	115	192	0
XTP	115	192	4
TAP	116	0	2
TAP	116	0	6
TAP	116	96	3
TAP	116	192	1
TAP	116	192	5
TAP	116	288	6
TAP	116	336	5
TAP	117	0	4
TAP	117	192	2
TAP	117	240	1
XTP	117	288	0
TTP	117	288	6	E	0	M1
XTP	118	0	1
TTP	118	0	7	E	0	M1
TTP	118	96	0	E	0	M1
XTP	118	96	2
TTP	118	192	2	E	0	M1
XTP	118	192	7
TTP	118	288	1	E	0	M1
XTP	118	288	6
TTP	119	0	0	E	0	M1
XTP	119	0	5
TAP	119	96	1
TAP	119	96	7
TAP	119	192	2
TAP	119	240	2
TAP	119	288	2
TAP	120	0	3
TAP	120	96	2
TAP	120	96	4
TAP	120	192	1
TAP	120	192	5
TAP	120	288	0
TAP	120	288	6
TAP	121	0	5
TAP	121	48	5
TAP	121	96	5
TAP	121	192	4
TAP	121	288	3
TAP	121	288	5
TAP	122	0	2
TAP	122	0	6
TAP	122	96	1
TAP	122	96	7
TAP	122	192	6
TAP	122	240	5
TAP	122	288	4
TAP	123	0	0
TAP	123	0	6
TAP	123	96	1
TAP	123	144	2
TAP	123	192	3
TTP	123	288	2	E	0	M1
XTP	123	288	7
TTP	124	0	1	E	0	M1
XTP	124	0	6
TTP	124	96	0	E	0	M1
XTP	124	96	5
XTP	124	192	0
TTP	124	192	6	E	0	M1
XTP	124	288	1
TTP	124	288	7	E	0	M1
TTP	125	0	0	E	0	M1
XTP	125	0	2
TAP	125	96	4
TAP	125	96	6
TAP	125	192	5
TAP	125	240	5
TAP	125	288	5
HLD	126	0	0	192
TAP	126	96	1
TAP	126	192	1
TAP	126	288	1
TAP	126	288	3
TAP	127	0	2
TAP	127	48	2
TAP	127	96	2
HLD	127	192	7	192
TAP	127	288	6
TAP	128	0	6
XHO	128	96	1	288
TTP	128	192	0	B	0	M1
TTP	128	192	7	B	0	M1
TTP	128	208	1	B	0	M1
TTP	128	224	2	B	0	M1
TTP	128	240	3	B	0	M1
TTP	128	256	4	B	0	M1
TTP	128	272	5	B	0	M1
XHO	129	0	6	288
TTP	129	96	0	E	0	M1
TTP	129	96	1	E	0	M1
TTP	129	112	7	E	0	M1
TTP	129	128	6	E	0	M1
TTP	129	144	5	E	0	M1
TTP	129	160	4	E	0	M1
TTP	129	176	3	E	0	M1
XHO	129	288	2	288
TTP	130	0	3	B	0	M1
TTP	130	0	4	B	0	M1
TTP	130	16	2	B	0	M1
TTP	130	32	1	B	0	M1
TTP	130	48	0	B	0	M1
TTP	130	64	7	B	0	M1
TTP	130	80	6	B	0	M1
XHO	130	192	5	288
TTP	130	288	3	E	0	M1
TTP	130	288	4	E	0	M1
TTP	130	304	5	E	0	M1
TTP	130	320	6	E	0	M1
TTP	130	336	7	E	0	M1
TTP	130	352	0	E	0	M1
TTP	130	368	1	E	0	M1
XHO	131	96	0	288
TTP	131	192	5	B	0	M1
TTP	131	192	6	B	0	M1
TTP	131	208	4	B	0	M1
TTP	131	224	3	B	0	M1
TTP	131	240	2	B	0	M1
TTP	131	256	1	B	0	M1
TTP	131	272	0	B	0	M1
XHO	132	0	7	288
TTP	132	96	6	E	0	M1
TTP	132	96	7	E	0	M1
TTP	132	112	5	E	0	M1
TTP	132	128	4	E	0	M1
TTP	132	144	3	E	0	M1
TTP	132	160	2	E	0	M1
TTP	132	176	1	E	0	M1
XHO	132	288	3	288
TTP	133	0	5	B	0	M1
TTP	133	0	6	B	0	M1
TTP	133	16	7	B	0	M1
TTP	133	32	0	B	0	M1
TTP	133	48	1	B	0	M1
TTP	133	64	2	B	0	M1
TTP	133	80	3	B	0	M1
XHO	133	192	4	288
TTP	133	288	5	E	0	M1
TTP	133	288	6	E	0	M1
TTP	133	304	7	E	0	M1
TTP	133	320	0	E	0	M1
TTP	133	336	1	E	0	M1
TTP	133	352	2	E	0	M1
TTP	133	368	3	E	0	M1
THO	134	96	0	288	C	1	M1
TTP	135	0	1	B	0	M1
TTP	135	0	1	E	0	M1
TTP	135	0	2	E	0	M1
TTP	135	0	6	B	0	M1
TTP	135	0	6	E	0	M1
TTP	135	0	7	E	0	M1
TAP	138	288	0
TAP	138	336	5
TAP	139	0	4
TAP	139	48	7
TAP	139	96	2
TAP	139	144	3
BST	139	192	0
SCL	139	192	0	96	96	5

T_REC_TAP	502
T_REC_BRK	22
T_REC_XTP	65
T_REC_HLD	9
T_REC_XHO	10
T_REC_STR	13
T_REC_BST	3
T_REC_XST	0
T_REC_TTP	168
T_REC_THO	3
T_REC_SLD	16
T_REC_ALL	811
T_NUM_TAP	748
T_NUM_BRK	25
T_NUM_HLD	22
T_NUM_SLD	16
T_NUM_ALL	811
T_JUDGE_TAP	773
T_JUDGE_HLD	68
T_JUDGE_SLD	16
T_JUDGE_ALL	857
TTM_EACHPAIRS	141
TTM_SCR_TAP	374000
TTM_SCR_BRK	65000
TTM_SCR_HLD	22000
TTM_SCR_SLD	24000
TTM_SCR_ALL	485000
TTM_SCR_S	468050
TTM_SCR_SS	482500
TTM_RAT_ACV	10051

