VERSION	0.00.00	1.03.00
FES_MODE	0
BPM_DEF	262.000	262.000	262.000	262.000
MET_DEF	4	4
RESOLUTION	384
CLK_DEF	288
COMPATIBLE_CODE	MA2

BPM	0	0	262.000
MET	0	0	4	3

HLD	2	96	2	144
HLD	2	240	3	144
TAP	3	0	4
TAP	3	96	4
TAP	3	96	5
HLD	3	288	5	144
HLD	4	48	6	144
TAP	4	192	7
TAP	4	288	0
TAP	4	288	7
XTP	5	96	1
XST	5	96	6
SCL	5	96	6	96	384	1
THO	6	288	0	288	C	0	M1
TAP	8	96	1
TAP	8	96	6
TTP	8	288	2	B	0	M1
TTP	9	0	3	E	0	M1
TTP	9	192	5	B	0	M1
TTP	9	288	5	E	0	M1
TTP	10	96	0	C	0	M1
TTP	10	192	4	E	0	M1
TAP	11	96	3
TAP	11	96	4
TTP	11	288	6	B	0	M1
TTP	12	0	5	B	0	M1
TTP	12	192	1	B	0	M1
TTP	12	288	2	B	0	M1
TTP	13	96	0	E	0	M1
TTP	13	192	0	C	0	M1
HLD	14	96	2	192
TAP	14	288	3
TAP	15	0	2
TAP	15	0	3
HLD	15	288	5	192
TAP	16	96	4
TAP	16	192	4
TAP	16	192	5
TTP	17	96	2	B	0	M1
TTP	17	96	3	E	0	M1
TTP	17	288	5	B	0	M1
TTP	17	288	5	E	0	M1
TTP	18	96	3	B	0	M1
TTP	18	96	4	B	0	M1
STR	18	288	0
SI_	18	288	0	96	192	3
STR	18	288	7
SI_	18	288	7	96	192	4
TAP	20	96	1
TAP	20	96	6
TTP	20	288	2	B	0	M1
TTP	21	0	3	B	0	M1
TTP	21	192	7	B	0	M1
TTP	21	288	6	B	0	M1
TTP	22	96	4	E	0	M1
TTP	22	192	5	E	0	M1
TAP	23	96	2
TAP	23	96	3
TTP	23	288	6	E	0	M1
TTP	24	0	5	E	0	M1
TTP	24	192	1	E	0	M1
TTP	24	288	2	E	0	M1
TTP	25	96	4	E	0	M1
TTP	25	192	3	E	0	M1
TAP	26	96	4
TAP	26	96	5
TAP	26	288	6
TAP	27	0	4
TAP	27	0	6
TAP	27	192	3
TAP	27	288	3
TAP	27	288	4
TAP	28	96	1
TAP	28	192	1
TAP	28	192	3
TTP	29	96	4	B	0	M1
TTP	29	96	5	B	0	M1
TTP	29	288	2	B	0	M1
TTP	29	288	3	B	0	M1
TTP	30	96	6	B	0	M1
TTP	30	96	7	B	0	M1
TTP	30	288	1	E	0	M1
TTP	31	0	0	C	0	M1
TTP	31	96	2	E	0	M1
TTP	31	192	4	E	0	M1
TTP	31	288	3	E	0	M1
TAP	32	96	1
TAP	32	96	5
TAP	32	192	2
TAP	32	240	2
TAP	32	288	3
TAP	33	0	1
TAP	33	0	4
TAP	33	96	1
TAP	33	192	2
TAP	33	288	3
TAP	33	288	4
TAP	34	0	5
TAP	34	48	5
TAP	34	96	4
TAP	34	192	3
TAP	34	192	6
TAP	34	288	6
TAP	35	0	5
TAP	35	96	3
TAP	35	96	4
TAP	35	192	2
TAP	35	288	0
TAP	35	288	1
TAP	36	0	0
TAP	36	0	1
TAP	36	288	0
TAP	36	288	7
TAP	37	0	6
TAP	37	96	4
TAP	37	96	5
XTP	37	192	3
XTP	37	192	6
TAP	38	96	2
TAP	38	96	3
TAP	38	192	1
TAP	38	240	1
TAP	38	288	0
TAP	39	0	0
TAP	39	0	7
TAP	39	96	6
TAP	39	192	6
TAP	39	288	6
TAP	39	288	7
TAP	40	0	5
TAP	40	48	5
TAP	40	96	4
TAP	40	192	3
TAP	40	192	4
TAP	41	0	2
TAP	41	0	5
XST	41	96	2
SUR	41	96	2	96	288	5
XTP	41	96	5
XTP	42	0	7
TAP	42	288	0
TAP	42	288	7
TAP	43	0	1
TAP	43	96	2
TAP	43	192	3
TAP	43	192	4
TAP	43	288	5
TAP	44	0	5
BRK	44	96	4
HLD	44	96	6	192
TAP	44	192	5
TAP	44	288	7
TAP	45	0	0
HLD	45	0	1	192
TAP	45	96	2
TAP	45	192	3
TAP	45	288	2
TAP	45	288	4
TAP	46	0	3
TAP	46	0	5
STR	46	96	4
SCL	46	96	4	96	192	0
TAP	46	96	6
BRK	46	192	7
XHO	47	96	6	96
HLD	47	192	5	96
TAP	47	288	4
XHO	48	0	1	96
HLD	48	96	2	96
TAP	48	192	3
TAP	48	288	4
TAP	48	288	5
TAP	49	0	4
TAP	49	0	5
TAP	49	96	4
TAP	49	96	5
BRK	49	192	2
BRK	49	192	6
XHO	50	96	6	192
TAP	50	96	7
TAP	50	288	7
TAP	51	0	0
XHO	51	0	1	192
TAP	51	192	0
XHO	51	288	2	192
TAP	51	288	3
STR	52	96	3
SCR	52	96	3	96	192	0
THO	53	96	0	192	C	1	M1
XTP	54	288	0
XTP	54	288	7
XTP	55	0	0
XTP	55	0	7
XTP	55	96	0
XTP	55	96	7
BRK	55	192	1
BRK	55	192	6
TAP	56	96	4
TAP	56	96	5
TAP	56	192	3
TAP	56	192	4
TAP	56	288	2
HLD	57	0	0	192
HLD	57	0	1	192
TAP	57	288	0
TAP	57	288	1
TAP	58	0	0
TAP	58	0	7
TAP	58	96	6
TAP	58	192	4
HLD	58	192	5	192
TAP	59	0	4
HLD	59	96	6	96
HLD	59	192	5	96
HLD	59	288	4	96
HLD	60	0	3	96
HLD	60	96	2	96
TAP	60	192	1
XTP	60	288	1
XTP	60	288	4
XTP	61	0	1
XTP	61	0	4
XTP	61	96	2
XTP	61	96	5
XTP	61	192	3
XTP	61	192	6
XTP	61	288	3
XTP	61	288	6
XTP	62	0	3
XTP	62	0	6
TAP	62	96	4
TAP	62	96	5
TAP	62	192	3
TAP	62	192	4
TAP	62	288	2
HLD	63	0	0	192
HLD	63	0	1	192
TAP	63	288	0
TAP	63	288	1
TAP	64	0	0
TAP	64	0	7
TAP	64	96	6
TAP	64	192	4
TAP	64	192	6
XTP	65	0	3
XTP	65	0	4
TAP	65	96	3
BST	65	96	4
SI_	65	96	4	96	96	0
TAP	65	288	1
BST	66	0	1
SI_	66	0	1	96	96	5
TAP	66	192	7
BST	66	288	7
SI_	66	288	7	96	96	3
TAP	67	96	1
HLD	67	192	1	192
HLD	67	192	4	192
TTP	68	96	0	C	1	M1
TTP	68	96	2	B	0	M1
TTP	68	96	6	B	0	M1
THO	71	96	0	576	C	0	M1
TTP	71	96	1	B	0	M1
TTP	71	96	5	B	0	M1
XHO	74	96	4	192
XHO	74	96	5	192
XHO	75	0	2	192
XHO	75	0	3	192
HLD	75	288	4	96
HLD	75	288	6	96
HLD	76	96	3	96
HLD	76	96	5	96
HLD	76	288	2	96
HLD	76	288	4	96
XTP	77	96	1
TAP	77	192	2
TAP	77	288	3
TAP	78	0	4
TAP	78	96	5
TAP	78	192	1
TAP	78	192	6
TAP	78	288	0
TAP	78	336	7
TAP	79	0	0
TAP	79	48	7
TAP	79	96	1
TAP	79	144	6
TAP	79	192	1
TAP	79	240	6
TAP	79	288	2
TAP	79	336	5
TAP	80	0	2
TAP	80	48	5
BST	80	96	3
SF_	80	96	3	96	192	7
HLD	81	288	1	864
HLD	83	96	3	864
HLD	84	288	4	864
HLD	86	96	5	288
HLD	87	288	4	192
HLD	87	288	6	288
TAP	88	192	4
HLD	89	96	2	288
HLD	89	96	3	192
TAP	90	0	3
XHO	90	288	0	192
XHO	90	288	6	192
XHO	91	192	1	192
XHO	91	192	7	192
TTP	92	96	1	E	0	M1
TTP	92	192	2	E	0	M1
TTP	92	288	3	E	0	M1
TTP	93	0	5	E	0	M1
TTP	93	96	6	E	0	M1
TTP	93	192	7	E	0	M1
THO	93	288	0	288	C	0	M1
BRK	95	96	0
HLD	95	96	1	192
TAP	95	192	2
TAP	95	288	3
TAP	96	0	4
HLD	96	0	6	192
TAP	96	96	5
TAP	96	192	7
TAP	96	288	1
TAP	96	288	3
TAP	97	0	2
TAP	97	0	4
STR	97	96	3
SLL	97	96	3	96	192	7
TAP	97	96	5
BRK	97	192	7
HLD	98	96	5	96
HLD	98	192	6	96
TAP	98	288	7
HLD	99	0	2	96
HLD	99	96	1	96
TAP	99	192	0
XTP	99	288	6
XTP	99	288	7
XTP	100	0	6
XTP	100	0	7
XTP	100	96	6
XTP	100	96	7
BRK	100	192	1
BRK	100	192	5
XHO	101	96	1	192
TAP	101	96	3
TAP	101	288	3
TAP	102	0	4
XHO	102	0	6	192
TAP	102	192	4
TAP	102	288	0
XHO	102	288	2	192
STR	103	96	0
SCL	103	96	0	96	192	5
SCR	103	96	0	96	192	3
THO	104	96	0	192	C	1	M1
XTP	105	288	0
XTP	105	288	7
XTP	106	0	0
XTP	106	0	7
XTP	106	96	1
XTP	106	96	6
BRK	106	192	2
BRK	106	192	5
TAP	107	96	3
TAP	107	96	6
TAP	107	192	5
TAP	107	240	5
TAP	107	288	4
TAP	108	0	6
TAP	108	0	7
TAP	108	96	0
TAP	108	192	1
TAP	108	288	1
TAP	108	288	4
TAP	109	0	2
TAP	109	48	2
TAP	109	96	3
TAP	109	192	0
TAP	109	192	1
TAP	109	288	7
TAP	110	0	4
TAP	110	0	6
STR	110	96	3
SCL	110	96	3	96	192	0
TAP	110	288	7
STR	111	0	7
SCL	111	0	7	96	192	4
TAP	111	192	3
XTP	111	288	2
XTP	112	0	1
XTP	112	0	3
XTP	112	96	1
XTP	112	96	3
BRK	112	192	2
BRK	112	192	7
XHO	113	96	1	96
TAP	113	192	3
TAP	113	240	2
TAP	113	288	3
XHO	114	0	6	96
TAP	114	96	4
TAP	114	144	5
TAP	114	192	4
XHO	114	288	0	96
TAP	115	0	3
TAP	115	48	2
TAP	115	96	3
XHO	115	192	7	96
TAP	115	288	4
TAP	115	336	5
STR	116	0	4
SCL	116	0	4	96	144	1
SCR	116	0	4	96	144	7
TTP	117	0	0	C	1	M1
TTP	117	0	2	B	0	M1
TTP	117	0	5	B	0	M1
XTP	117	288	0
XTP	117	288	7
XTP	118	0	1
XTP	118	0	6
XTP	118	96	2
XTP	118	96	5
BRK	118	192	3
BRK	118	192	4
TAP	119	96	1
TAP	119	192	2
TAP	119	192	4
TAP	119	288	3
TAP	119	288	5
TAP	120	0	4
HLD	120	0	6	192
TAP	120	192	7
TAP	120	288	6
TAP	121	0	3
TAP	121	0	5
TAP	121	96	2
TAP	121	96	4
HLD	121	192	1	192
TAP	121	192	3
TAP	122	0	0
HLD	122	96	2	96
HLD	122	192	1	96
HLD	122	288	0	96
HLD	123	0	7	96
HLD	123	96	6	96
TAP	123	192	5
XTP	123	288	0
XTP	123	288	5
XTP	124	0	0
XTP	124	0	5
XTP	124	96	1
XTP	124	96	6
XTP	124	192	2
XTP	124	192	7
XTP	124	288	2
XTP	124	288	7
XTP	125	0	2
XTP	125	0	7
TAP	125	96	6
TAP	125	192	4
TAP	125	192	5
TAP	125	288	3
TAP	125	288	4
HLD	126	0	2	192
TAP	126	0	3
TAP	126	192	3
TAP	126	288	2
TAP	127	0	0
TAP	127	0	1
TAP	127	96	0
TAP	127	96	7
XTP	127	192	1
XTP	127	192	6
TAP	128	0	3
TAP	128	0	4
BST	128	96	2
SI_	128	96	2	96	96	7
TAP	128	96	5
TAP	128	288	6
BST	129	0	6
SI_	129	0	6	96	96	3
TAP	129	192	2
BST	129	288	2
SCL	129	288	2	96	96	7
TAP	130	96	5
BRK	130	192	5
TAP	131	0	0
TAP	131	0	1
BST	131	96	0
SUR	131	96	0	96	96	4
BST	131	96	1
SCR	131	96	1	96	96	3
BST	132	0	6
SCL	132	0	6	96	96	4
BST	132	0	7
SUL	132	0	7	96	96	3
BST	132	288	0
SCL	132	288	0	96	96	5
BST	132	288	1
SCR	132	288	1	96	96	4
BST	133	192	6
SCL	133	192	6	96	96	3
BST	133	192	7
SCR	133	192	7	96	96	2
THO	134	96	0	288	C	1	M1
BST	135	0	7
SCL	135	0	7	96	1056	0
HLD	138	0	7	576
THO	138	288	0	288	C	0	M1

T_REC_TAP	243
T_REC_BRK	17
T_REC_XTP	63
T_REC_HLD	51
T_REC_XHO	20
T_REC_STR	9
T_REC_BST	16
T_REC_XST	2
T_REC_TTP	55
T_REC_THO	7
T_REC_SLD	29
T_REC_ALL	512
T_NUM_TAP	372
T_NUM_BRK	33
T_NUM_HLD	78
T_NUM_SLD	29
T_NUM_ALL	512
T_JUDGE_TAP	405
T_JUDGE_HLD	164
T_JUDGE_SLD	29
T_JUDGE_ALL	598
TTM_EACHPAIRS	132
TTM_SCR_TAP	186000
TTM_SCR_BRK	85800
TTM_SCR_HLD	78000
TTM_SCR_SLD	43500
TTM_SCR_ALL	393300
TTM_SCR_S	378300
TTM_SCR_SS	390000
TTM_RAT_ACV	10084

