VERSION	0.00.00	1.03.00
FES_MODE	0
BPM_DEF	262.000	262.000	262.000	262.000
MET_DEF	4	4
RESOLUTION	384
CLK_DEF	288
COMPATIBLE_CODE	MA2

BPM	0	0	262.000
MET	0	0	4	3

TAP	2	96	2
TAP	2	192	2
TAP	2	288	2
TAP	3	96	3
TAP	3	96	4
TAP	3	288	5
TAP	4	0	5
TAP	4	96	5
TAP	4	288	3
TAP	4	288	4
STR	5	96	3
SI_	5	96	3	96	480	0
STR	5	96	4
SI_	5	96	4	96	480	7
XTP	7	192	1
XTP	7	192	6
TTP	8	96	0	B	0	L1
TTP	9	0	7	B	0	L1
TTP	9	288	6	B	0	L1
TTP	9	288	7	E	0	L1
TTP	11	96	4	B	0	L1
TTP	12	0	3	B	0	L1
TTP	12	288	2	B	0	L1
TTP	12	288	3	E	0	L1
TTP	14	96	2	E	0	L1
TTP	15	0	1	B	0	L1
TTP	15	288	0	B	0	L1
TTP	16	192	0	E	0	L1
TTP	17	96	7	B	0	L1
TTP	18	0	6	B	0	L1
THO	18	288	0	288	C	0	L1
TTP	20	96	0	B	0	L1
TTP	20	96	6	B	0	L1
TTP	21	288	1	B	0	L1
TTP	21	288	7	B	0	L1
TTP	23	96	3	B	0	L1
TTP	23	96	5	B	0	L1
TTP	24	288	2	B	0	L1
TTP	24	288	4	B	0	L1
TTP	26	96	5	B	0	L1
TTP	27	0	4	B	0	L1
TTP	27	288	3	B	0	L1
TTP	28	192	2	B	0	L1
THO	29	96	0	576	C	1	L1
HLD	32	96	1	288
HLD	33	0	2	288
TAP	33	288	3
TAP	34	96	4
TAP	34	192	4
HLD	35	96	5	288
HLD	36	0	6	288
TAP	36	288	7
TAP	37	96	0
TAP	37	192	0
TAP	37	192	7
HLD	38	96	6	288
HLD	39	0	5	288
HLD	39	288	4	288
HLD	40	192	3	288
XTP	41	96	2
XTP	42	0	4
XTP	42	0	5
XTP	42	288	3
XTP	42	288	4
XTP	43	192	2
XTP	43	192	5
BRK	44	96	1
TAP	44	192	1
TAP	44	288	1
TAP	45	0	0
TAP	45	0	1
TAP	45	288	6
TAP	46	0	6
TAP	46	96	6
TAP	46	192	6
TAP	46	192	7
TAP	47	96	4
TAP	47	96	5
TAP	47	288	2
TAP	48	0	2
TAP	48	0	3
TAP	48	192	5
TAP	48	288	4
TAP	48	288	5
TAP	49	96	1
TAP	49	96	6
BRK	49	192	1
BRK	49	192	6
XHO	50	96	2	288
XHO	51	0	3	288
XTP	51	288	4
XTP	52	96	5
XTP	52	192	5
XTP	53	0	6
XST	53	96	6
SCL	53	96	6	96	480	1
XTP	55	192	0
XTP	55	192	7
HLD	56	96	1	288
TAP	56	288	0
TAP	57	0	0
HLD	57	288	6	288
TAP	58	96	7
TAP	58	192	7
TAP	59	96	0
TAP	59	96	1
TAP	59	288	2
TAP	59	288	7
TAP	60	0	2
TAP	60	0	7
TAP	60	192	1
TAP	60	192	6
TAP	60	288	1
TAP	60	288	6
TAP	61	96	0
TAP	61	96	5
XTP	61	192	0
XTP	61	192	5
HLD	62	96	5	288
TAP	62	288	4
TAP	63	0	4
HLD	63	288	2	288
TAP	64	96	3
TAP	64	192	3
XTP	65	96	3
XTP	65	96	4
XTP	65	288	4
XTP	65	288	6
XTP	66	0	4
XTP	66	0	6
XTP	66	192	1
XTP	66	192	3
XTP	66	288	1
XTP	66	288	3
XTP	67	96	0
XTP	67	96	7
XTP	67	192	0
XTP	67	192	7
BST	68	96	1
SLR	68	96	1	96	624	0
BST	68	96	6
SLL	68	96	6	96	624	7
XST	71	96	0
SCR	71	96	0	96	624	3
XST	71	96	7
SCL	71	96	7	96	624	4
XHO	74	96	3	288
XHO	74	96	4	288
XTP	75	288	3
XTP	75	288	4
XTP	76	96	3
XTP	76	96	4
XTP	76	288	2
XTP	76	288	5
XTP	77	96	2
XTP	77	96	5
XTP	77	288	1
XTP	77	288	6
XTP	78	96	1
XTP	78	96	6
THO	78	288	0	576	C	1	L1
STR	81	288	0
SCR	81	288	0	96	480	3
STR	84	288	4
SCR	84	288	4	96	480	7
STR	87	288	0
SI_	87	288	0	96	480	4
XHO	90	288	3	288
XHO	90	288	5	288
HLD	92	96	2	288
HLD	92	96	4	288
THO	93	288	0	288	C	0	L1
BRK	95	96	0
TAP	95	192	0
TAP	95	288	0
TAP	96	0	1
TAP	96	0	7
TAP	96	288	2
TAP	97	0	2
TAP	97	96	2
TAP	97	192	1
TAP	97	192	3
TAP	98	96	5
TAP	98	192	5
TAP	98	288	5
TAP	99	0	4
TAP	99	0	6
TAP	99	288	0
TAP	99	288	7
TAP	100	0	0
TAP	100	0	7
TAP	100	96	0
TAP	100	96	7
XTP	100	192	1
XTP	100	192	6
XHO	101	96	1	288
XHO	102	0	0	288
XTP	102	288	7
XTP	103	96	6
XTP	103	192	6
XTP	104	0	5
XST	104	96	5
SCR	104	96	5	96	480	2
XTP	106	192	3
XTP	106	192	4
TAP	107	96	2
TAP	107	192	2
TAP	107	288	2
TAP	108	0	2
TAP	108	0	3
TAP	108	288	1
TAP	109	0	1
TAP	109	96	1
TAP	109	192	0
TAP	109	192	1
TAP	110	96	6
TAP	110	192	6
TAP	110	288	6
TAP	111	0	6
TAP	111	0	7
TAP	111	288	5
TAP	112	0	5
TAP	112	96	5
XTP	112	192	4
XTP	112	192	6
XTP	113	96	3
XTP	113	96	4
XTP	113	288	1
XTP	113	288	3
XTP	114	0	1
XTP	114	0	3
XTP	114	192	4
XTP	114	192	6
XTP	114	288	4
XTP	114	288	6
XTP	115	96	0
XTP	115	96	1
XTP	115	192	0
XTP	115	192	1
TAP	116	0	0
TAP	116	0	7
TAP	116	96	0
TAP	116	96	7
TAP	116	288	1
TAP	116	288	6
TAP	117	0	1
TAP	117	0	6
TAP	117	192	3
TAP	117	192	4
TAP	117	288	3
TAP	117	288	4
TAP	118	0	3
TAP	118	0	4
TAP	118	96	3
TAP	118	96	4
BRK	118	192	2
BRK	118	192	5
HLD	119	96	1	288
TAP	119	288	3
TAP	120	0	3
HLD	120	288	6	288
TAP	121	96	4
TAP	121	192	4
TAP	122	96	2
TAP	122	96	3
TAP	122	288	1
TAP	122	288	4
TAP	123	0	1
TAP	123	0	4
TAP	123	192	2
TAP	123	192	5
TAP	123	288	2
TAP	123	288	5
TAP	124	96	3
TAP	124	96	6
XTP	124	192	3
XTP	124	192	6
HLD	125	96	5	288
TAP	125	288	7
TAP	126	0	7
HLD	126	288	2	288
TAP	127	96	0
TAP	127	192	0
XHO	128	96	1	288
XHO	129	0	2	288
XHO	129	288	3	288
XTP	130	192	4
TAP	131	96	6
TAP	131	192	6
TAP	131	288	6
TAP	132	0	1
TAP	132	96	1
TAP	132	192	1
XTP	132	288	7
XTP	133	0	7
XTP	133	96	7
XHO	133	192	0	288
XHO	133	192	7	288
THO	135	0	0	1152	C	1	L1
TTP	135	0	1	B	0	L1
TTP	135	0	2	B	0	L1
TTP	135	0	5	B	0	L1
TTP	135	0	6	B	0	L1

T_REC_TAP	136
T_REC_BRK	6
T_REC_XTP	73
T_REC_HLD	18
T_REC_XHO	13
T_REC_STR	5
T_REC_BST	2
T_REC_XST	4
T_REC_TTP	30
T_REC_THO	5
T_REC_SLD	11
T_REC_ALL	303
T_NUM_TAP	248
T_NUM_BRK	8
T_NUM_HLD	36
T_NUM_SLD	11
T_NUM_ALL	303
T_JUDGE_TAP	256
T_JUDGE_HLD	123
T_JUDGE_SLD	11
T_JUDGE_ALL	390
TTM_EACHPAIRS	77
TTM_SCR_TAP	124000
TTM_SCR_BRK	20800
TTM_SCR_HLD	36000
TTM_SCR_SLD	16500
TTM_SCR_ALL	197300
TTM_SCR_S	190650
TTM_SCR_SS	196500
TTM_RAT_ACV	10040

