VERSION	0.00.00	1.03.00
FES_MODE	0
BPM_DEF	262.000	262.000	262.000	262.000
MET_DEF	4	4
RESOLUTION	384
CLK_DEF	288
COMPATIBLE_CODE	MA2

BPM	0	0	262.000
MET	0	0	4	3

XTP	2	96	7
XTP	3	288	0
HLD	5	96	7	576
TAP	8	96	0
TAP	9	0	0
TAP	9	288	0
TAP	11	96	1
TAP	12	0	1
TAP	12	288	1
TAP	14	96	2
TAP	15	0	2
TAP	15	288	2
TAP	17	96	3
TAP	18	0	3
TAP	18	288	3
TAP	18	288	4
TAP	20	96	4
TAP	21	0	4
TAP	21	288	4
TAP	23	96	5
TAP	24	0	5
TAP	24	288	5
TAP	26	96	6
TAP	27	0	6
TAP	27	288	6
TAP	29	96	7
TAP	30	0	7
TAP	30	288	0
TAP	30	288	7
STR	32	96	1
SI_	32	96	1	96	480	5
STR	35	96	6
SI_	35	96	6	96	480	2
STR	38	96	1
SI_	38	96	1	96	480	5
TAP	41	96	6
TAP	42	0	6
TAP	42	288	0
TAP	42	288	7
BRK	43	192	0
BRK	43	192	7
TAP	44	96	7
TAP	44	192	7
TAP	45	0	6
TAP	45	96	6
TAP	45	288	5
TAP	46	0	5
HLD	46	192	4	576
TAP	48	288	3
TAP	48	288	4
TAP	49	192	3
TAP	49	192	4
TAP	50	96	3
TAP	50	192	3
TAP	51	0	2
TAP	51	96	2
TAP	51	288	1
TAP	52	0	1
TAP	52	192	0
TAP	53	96	7
TAP	54	0	6
TAP	54	288	4
TAP	54	288	5
TTP	56	96	5	E	0	L1
TTP	57	288	4	E	0	L1
TTP	59	96	3	E	0	L1
TTP	60	288	0	C	1	L1
TTP	62	96	0	E	0	L1
TTP	63	288	7	E	0	L1
TTP	65	96	6	E	0	L1
TTP	66	288	5	E	0	L1
TTP	68	96	0	C	1	L1
XTP	71	96	0
XTP	71	96	7
XTP	72	288	1
XTP	72	288	6
XTP	74	96	2
XTP	74	96	5
TTP	75	288	3	E	0	L1
TTP	75	288	5	E	0	L1
THO	77	96	0	1152	C	1	L1
HLD	81	288	7	576
HLD	84	288	0	576
TAP	87	288	7
TAP	89	96	6
TAP	90	288	5
TAP	92	96	4
HLD	93	288	3	288
HLD	93	288	4	288
TAP	95	96	3
TAP	95	192	3
TAP	95	288	3
TAP	96	288	2
TAP	97	0	2
TAP	97	96	2
TAP	98	96	1
TAP	98	192	1
TAP	98	288	1
TAP	99	288	0
TAP	100	192	0
TAP	100	192	7
TAP	101	96	7
TAP	101	192	7
TAP	101	288	7
TAP	102	288	6
TAP	103	0	6
TAP	103	96	6
BRK	104	96	5
TAP	105	288	4
TAP	106	192	3
TAP	106	192	4
TAP	107	96	5
TAP	108	0	4
TAP	108	0	5
TAP	108	288	6
TAP	109	192	6
TAP	109	192	7
TAP	110	96	0
TAP	111	0	0
TAP	111	0	7
TAP	111	288	1
TAP	112	192	0
TAP	112	192	1
TAP	113	96	2
TAP	114	0	2
TAP	114	0	3
TAP	114	288	3
TAP	115	192	3
TAP	115	192	4
TAP	116	96	5
TAP	117	0	4
TAP	117	0	5
TAP	117	288	3
TAP	117	288	4
TAP	118	192	2
TAP	118	192	3
TAP	119	96	4
TAP	119	192	4
TAP	120	0	5
TAP	120	96	5
TAP	120	288	6
TAP	121	0	6
TAP	121	192	7
TAP	121	288	7
TAP	122	96	0
TAP	122	192	0
TAP	123	0	1
TAP	123	96	1
TAP	123	288	2
TAP	124	0	2
TAP	124	192	3
TAP	124	192	4
TAP	125	96	3
TAP	125	192	3
TAP	126	0	2
TAP	126	96	2
TAP	126	288	1
TAP	127	0	1
TAP	127	192	0
TAP	127	288	0
HLD	128	96	7	288
HLD	129	288	0	288
XHO	131	96	6	288
XHO	131	96	7	288
XHO	132	288	0	288
XHO	132	288	1	288
STR	135	0	7
SI_	135	0	7	96	480	3
XTP	138	0	3
XTP	138	0	4
TTP	138	288	4	E	0	L1
TTP	139	192	0	C	0	L1

T_REC_TAP	125
T_REC_BRK	3
T_REC_XTP	10
T_REC_HLD	8
T_REC_XHO	4
T_REC_STR	4
T_REC_BST	0
T_REC_XST	0
T_REC_TTP	13
T_REC_THO	1
T_REC_SLD	4
T_REC_ALL	172
T_NUM_TAP	152
T_NUM_BRK	3
T_NUM_HLD	13
T_NUM_SLD	4
T_NUM_ALL	172
T_JUDGE_TAP	155
T_JUDGE_HLD	60
T_JUDGE_SLD	4
T_JUDGE_ALL	219
TTM_EACHPAIRS	26
TTM_SCR_TAP	76000
TTM_SCR_BRK	7800
TTM_SCR_HLD	13000
TTM_SCR_SLD	6000
TTM_SCR_ALL	102800
TTM_SCR_S	99450
TTM_SCR_SS	102500
TTM_RAT_ACV	10029

