VERSION	0.00.00	1.03.00
FES_MODE	0
BPM_DEF	132.000	132.000	132.000	132.000
MET_DEF	4	4
RESOLUTION	384
CLK_DEF	384
COMPATIBLE_CODE	MA2

BPM	0	0	132.000
MET	0	0	4	4

TAP	1	288	2
TAP	1	288	5
TAP	1	312	3
TAP	1	324	4
TAP	1	336	3
TAP	2	0	5
TAP	2	48	4
TAP	2	48	5
TAP	2	96	3
TAP	2	144	3
TAP	2	168	4
TAP	2	216	5
TAP	2	240	4
TAP	2	264	5
TAP	2	288	3
TAP	2	336	2
TAP	2	336	3
TAP	3	0	4
TAP	3	48	4
TAP	3	48	5
TAP	3	96	3
TAP	3	144	3
TAP	3	168	4
TAP	3	216	5
TAP	3	240	4
TAP	3	264	5
STR	3	288	3
SUR	3	288	3	96	288	4
TAP	3	336	2
HLD	3	336	3	528
TAP	5	288	7
TAP	5	336	7
TAP	6	0	6
TAP	6	48	4
TAP	6	48	6
TAP	6	96	2
TAP	6	144	2
TAP	6	168	4
TAP	6	216	6
TAP	6	240	4
TAP	6	264	6
TAP	6	288	2
TAP	6	336	1
TAP	6	336	3
TAP	7	0	6
TAP	7	48	4
TAP	7	48	6
TAP	7	96	2
TAP	7	144	2
TAP	7	168	4
TAP	7	216	6
TAP	7	240	4
TAP	7	264	6
STR	7	288	2
SUL	7	288	2	96	288	1
TAP	7	336	1
TAP	7	336	3
BRK	9	0	0
BRK	9	96	1
BRK	9	192	2
STR	9	192	4
SF_	9	192	4	96	48	0
TAP	9	240	5
BRK	9	288	4
XTP	10	0	0
XTP	10	0	1
TAP	10	48	2
TAP	10	48	3
TAP	10	96	4
TAP	10	96	5
TAP	10	144	6
TAP	10	168	7
TAP	10	216	2
TAP	10	240	3
TAP	10	288	4
TAP	10	288	5
TAP	10	336	3
TAP	10	336	6
XTP	11	0	6
XTP	11	0	7
TAP	11	48	4
TAP	11	48	5
TAP	11	96	2
TAP	11	96	3
TAP	11	144	1
TAP	11	168	0
TAP	11	216	5
TAP	11	240	4
TAP	11	288	2
TAP	11	288	3
TAP	11	336	1
TAP	11	336	4
TAP	12	0	6
TAP	12	24	4
TAP	12	72	3
TAP	12	72	7
TAP	12	120	0
TAP	12	144	0
TAP	12	192	1
TAP	12	216	3
TAP	12	264	0
TAP	12	264	4
TAP	12	312	7
TAP	12	336	7
TAP	13	0	6
TAP	13	24	4
TAP	13	72	3
TAP	13	72	4
TAP	13	120	1
TAP	13	144	3
HLD	13	192	1	24
HLD	13	192	3	24
HLD	13	264	4	24
HLD	13	264	6	24
XTP	13	336	2
XST	13	336	4
SI_	13	336	4	96	24	6
TAP	14	0	5
STR	14	48	2
SI_	14	48	2	96	24	0
TAP	14	48	4
TAP	14	96	1
TAP	14	144	2
STR	14	144	4
SCR	14	144	4	96	24	6
TAP	14	192	5
STR	14	240	2
SCL	14	240	2	96	24	0
TAP	14	240	4
TAP	14	288	1
TAP	14	336	2
STR	14	336	4
SI_	14	336	4	96	24	6
TAP	15	0	5
STR	15	48	2
SI_	15	48	2	96	24	0
TAP	15	48	4
TAP	15	96	1
TAP	15	144	2
STR	15	144	4
SCR	15	144	4	96	24	6
TAP	15	192	5
STR	15	240	2
SCL	15	240	2	96	24	0
TAP	15	240	4
TAP	15	288	1
TAP	15	336	2
STR	15	336	5
SI_	15	336	5	96	24	7
TAP	16	0	6
STR	16	48	3
SI_	16	48	3	96	24	1
TAP	16	48	5
TAP	16	96	2
TAP	16	144	3
STR	16	144	5
SCR	16	144	5	96	24	7
TAP	16	192	6
STR	16	240	3
SCL	16	240	3	96	24	1
TAP	16	240	5
TAP	16	288	2
TAP	16	336	3
TAP	16	336	5
TAP	17	0	6
TAP	17	48	6
STR	17	96	4
SCL	17	96	4	96	48	1
SCR	17	96	4	96	48	7
TAP	17	144	3
TAP	17	144	5
STR	17	192	4
SF_	17	192	4	96	24	0
TTP	17	300	0	C	1	M1
TTP	18	96	4	E	0	M1
TAP	18	192	4
TAP	18	204	5
TAP	18	216	6
TAP	18	228	7
TAP	18	240	0
TAP	18	252	1
TAP	18	264	2
TAP	18	276	3
TAP	18	288	4
XTP	18	336	7
XTP	19	0	7
TAP	19	24	0
TAP	19	72	0
TAP	19	120	0
TAP	19	120	7
TAP	19	168	0
TAP	19	168	7
TAP	19	216	0
TAP	19	216	7
TAP	19	264	4
TAP	19	264	6
TAP	19	312	4
TAP	19	312	6
TAP	19	360	3
TAP	20	0	4
TAP	20	24	2
TAP	20	72	1
TAP	20	72	3
TAP	20	120	1
TAP	20	120	3
TAP	20	168	4
TAP	20	168	6
TAP	20	216	4
TAP	20	216	6
TAP	20	264	1
TAP	20	264	3
TAP	20	312	1
TAP	20	312	3
TAP	20	360	4
TAP	21	0	3
TAP	21	24	5
TAP	21	72	4
TAP	21	72	6
TAP	21	120	4
TAP	21	120	6
TAP	21	168	1
TAP	21	168	3
TAP	21	216	1
TAP	21	216	3
TAP	21	264	0
TAP	21	264	4
TAP	21	312	0
TAP	21	312	4
TAP	21	360	6
TAP	22	0	7
TAP	22	24	5
TAP	22	72	3
TAP	22	72	5
TAP	22	120	3
TAP	22	120	5
TAP	22	168	2
TAP	22	192	2
TAP	22	216	3
TAP	22	240	1
STR	22	288	5
SXR	22	288	5	96	240	0
TAP	22	312	4
TAP	22	336	6
TAP	23	0	6
TAP	23	48	6
TAP	23	96	6
TAP	23	144	7
TAP	23	192	7
TAP	23	240	7
STR	23	288	7
SCL	23	288	7	96	48	4
TAP	23	336	7
TAP	24	0	3
TAP	24	48	3
STR	24	96	3
SCL	24	96	3	96	48	0
TAP	24	144	3
XTP	24	192	5
XTP	24	240	5
XST	24	288	4
SXL	24	288	4	96	240	7
XTP	24	336	4
TAP	25	0	3
TAP	25	48	3
TAP	25	96	3
TAP	25	144	3
TAP	25	192	2
TAP	25	240	2
STR	25	288	2
SCR	25	288	2	96	48	5
TAP	25	336	2
TAP	26	0	7
TAP	26	48	7
TAP	26	96	7
TAP	26	144	7
TAP	26	192	7
TAP	26	204	6
TAP	26	216	5
TAP	26	228	4
TAP	26	240	3
TAP	26	252	2
TAP	26	264	1
TAP	26	276	0
TAP	26	288	7
TAP	27	0	3
TAP	27	0	4
TAP	27	48	1
TAP	27	72	0
TAP	27	72	2
TAP	27	120	6
TAP	27	144	5
TAP	27	144	7
TAP	27	236	3
TAP	27	240	4
TAP	27	284	3
STR	27	288	4
SI_	27	288	4	96	48	6
TAP	27	336	2
STR	28	0	4
SI_	28	0	4	96	48	0
TAP	28	48	3
STR	28	96	4
SI_	28	96	4	96	48	7
TAP	28	144	5
STR	28	192	4
SI_	28	192	4	96	48	1
TAP	28	240	3
TAP	28	288	4
TAP	28	336	5
TAP	29	0	0
TAP	29	0	6
TAP	29	48	6
TAP	29	72	5
TAP	29	72	7
TAP	29	120	1
TAP	29	144	0
TAP	29	144	2
TAP	29	236	4
TAP	29	240	3
TAP	29	284	4
STR	29	288	3
SXR	29	288	3	96	48	1
TAP	29	336	5
STR	30	0	3
SXL	30	0	3	96	48	5
TAP	30	48	4
STR	30	96	3
SCL	30	96	3	96	48	0
TAP	30	144	2
STR	30	192	3
SCR	30	192	3	96	48	6
TAP	30	240	4
TAP	30	288	3
TAP	30	336	2
XTP	31	0	0
XTP	31	0	7
TAP	31	48	2
TAP	31	72	1
TAP	31	72	3
TAP	31	120	5
TAP	31	144	4
TAP	31	144	6
TAP	31	236	0
TAP	31	240	7
TAP	31	284	0
TAP	31	288	7
TAP	31	336	6
STR	32	0	4
SCR	32	0	4	96	48	7
TAP	32	0	5
TAP	32	48	2
STR	32	96	0
SF_	32	96	0	96	48	4
TAP	32	144	0
XTP	32	288	3
XTP	32	288	5
XTP	33	0	2
XHO	33	24	2	144
TAP	33	72	3
TAP	33	120	1
TAP	33	168	3
XTP	33	192	2
XHO	33	216	5	144
TAP	33	264	4
TAP	33	312	6
TAP	33	360	4
XTP	34	0	5
XHO	34	24	1	144
TAP	34	72	0
TAP	34	120	2
TAP	34	168	0
XTP	34	192	1
XTP	34	264	6
XTP	34	264	7
XTP	34	336	3
XTP	34	336	5
TAP	35	0	0
TAP	35	48	2
TAP	35	96	4
TAP	35	144	6
TAP	35	192	0
TAP	35	216	1
TAP	35	240	2
TAP	35	264	3
TAP	35	288	2
TAP	35	300	1
TAP	35	312	0
TAP	35	324	7
TAP	35	336	6
TAP	35	348	5
TAP	35	360	4
TAP	35	372	3
TTP	36	0	0	C	1	M1
TAP	36	0	2
TAP	36	240	2
TAP	36	240	4
HLD	36	288	2	48
HLD	36	288	4	576
XTP	37	0	1
XTP	37	12	0
XTP	37	24	7
XTP	37	36	6
XTP	37	48	5
XTP	37	96	6
XTP	37	108	7
XTP	37	120	0
XTP	37	132	1
XTP	37	144	2
XTP	37	192	1
XTP	37	204	0
XTP	37	216	7
XTP	37	228	6
XTP	37	240	5
XTP	37	288	6
XTP	37	300	7
XTP	37	312	0
XTP	37	324	1
XTP	37	336	2
XTP	38	0	1
XTP	38	12	0
XTP	38	24	7
XTP	38	36	6
XTP	38	48	5
XTP	38	96	6
XTP	38	108	7
XTP	38	120	0
XTP	38	132	1
XTP	38	144	2
STR	38	192	3
SUR	38	192	3	96	48	7
STR	38	192	5
SUL	38	192	5	96	48	0
TAP	38	240	4
XTP	39	0	0
XTP	39	0	7
TAP	39	48	0
TAP	39	48	7
TAP	39	96	0
TAP	39	96	1
TAP	39	144	0
TAP	39	144	7
TAP	39	192	6
TAP	39	192	7
STR	39	240	0
SI_	39	240	0	96	48	4
STR	39	288	7
SI_	39	288	7	96	48	3
STR	39	336	0
SI_	39	336	0	96	48	2
STR	40	0	7
SI_	40	0	7	96	48	5
TAP	40	48	0
TAP	40	96	7
XTP	40	144	4
BRK	40	192	3
BRK	40	192	6
BRK	40	264	1
BRK	40	264	4
HLD	40	336	3	576
TAP	40	336	5
XTP	41	0	6
XTP	41	12	7
XTP	41	24	0
XTP	41	36	1
XTP	41	48	2
XTP	41	96	1
XTP	41	108	0
XTP	41	120	7
XTP	41	132	6
XTP	41	144	5
XTP	41	192	6
XTP	41	204	7
XTP	41	216	0
XTP	41	228	1
XTP	41	240	2
XTP	41	288	1
XTP	41	300	0
XTP	41	312	7
XTP	41	324	6
XTP	41	336	5
XTP	42	0	6
XTP	42	12	7
XTP	42	24	0
XTP	42	36	1
XTP	42	48	2
XTP	42	96	1
XTP	42	108	0
XTP	42	120	7
XTP	42	132	6
XTP	42	144	5
STR	42	192	2
SUR	42	192	2	96	48	7
STR	42	192	4
SUL	42	192	4	96	48	0
TAP	42	240	3
XTP	43	0	0
XTP	43	0	7
TAP	43	48	0
TAP	43	48	7
TAP	43	96	5
TAP	43	96	6
TAP	43	144	3
TAP	43	144	4
TAP	43	192	1
TAP	43	192	2
TAP	43	240	0
TAP	43	240	7
STR	43	288	0
SCR	43	288	0	96	48	2
STR	43	288	7
SUR	43	288	7	96	48	3
STR	44	0	0
SUL	44	0	0	96	48	4
STR	44	0	7
SCL	44	0	7	96	48	5
STR	44	96	0
SCR	44	96	0	96	48	2
STR	44	96	7
SUR	44	96	7	96	48	3
TAP	44	192	0
TAP	44	192	7
TAP	44	288	0
STR	44	288	7
SI_	44	288	7	96	48	4
STR	45	0	7
SI_	45	0	7	96	48	2
TAP	45	48	0
STR	45	96	7
SI_	45	96	7	96	48	4
TAP	45	144	6
TAP	45	168	7
STR	45	192	7
SI_	45	192	7	96	48	2
TAP	45	240	0
STR	45	288	7
SI_	45	288	7	96	48	4
TAP	45	336	6
STR	46	0	7
SI_	46	0	7	96	48	2
TAP	46	48	0
STR	46	96	7
SI_	46	96	7	96	48	4
TAP	46	144	6
TAP	46	168	7
STR	46	192	7
SI_	46	192	7	96	48	2
TAP	46	240	0
TAP	46	288	7
TAP	46	336	6
HLD	47	0	6	96
TTP	47	48	4	B	0	M1
TTP	47	48	4	E	0	M1
HLD	47	96	2	96
TTP	47	144	4	B	0	M1
TTP	47	144	5	E	0	M1
HLD	47	192	6	48
TTP	47	240	4	B	0	M1
TTP	47	240	4	E	0	M1
TAP	47	288	3
TAP	47	336	2
TAP	47	360	3
XTP	48	0	1
TAP	48	24	5
TAP	48	48	4
XTP	48	72	6
TAP	48	96	1
TAP	48	120	3
XTP	48	144	2
TAP	48	168	6
TAP	48	192	4
XTP	48	216	5
TAP	48	240	2
TAP	48	264	3
XST	48	288	0
SI_	48	288	0	96	48	3
TAP	48	336	1
TAP	48	336	7
STR	49	0	0
SI_	49	0	0	96	48	5
TAP	49	48	7
STR	49	96	0
SI_	49	96	0	96	48	3
TAP	49	144	1
TAP	49	168	0
STR	49	192	0
SI_	49	192	0	96	48	5
TAP	49	240	7
STR	49	288	0
SI_	49	288	0	96	48	3
TAP	49	336	1
STR	50	0	0
SI_	50	0	0	96	48	5
TAP	50	48	7
STR	50	96	0
SI_	50	96	0	96	48	3
TAP	50	144	1
TAP	50	168	0
STR	50	192	0
SI_	50	192	0	96	48	5
TAP	50	240	7
TAP	50	288	0
TAP	50	336	2
TAP	51	0	1
TAP	51	48	0
TAP	51	96	7
TAP	51	144	6
TAP	51	192	5
TAP	51	240	4
TAP	51	288	2
STR	51	288	3
SXL	51	288	3	96	192	7
TAP	51	336	1
TAP	52	0	0
TAP	52	48	0
TAP	52	96	0
TAP	52	144	0
TAP	52	192	1
TAP	52	240	1
TAP	52	288	2
TAP	52	336	2
HLD	53	0	6	72
TAP	53	72	0
TAP	53	144	2
TAP	53	144	4
TAP	53	192	2
TAP	53	192	4
TAP	53	204	5
TAP	53	216	6
TAP	53	228	7
TAP	53	240	0
TAP	53	252	1
TAP	53	264	2
TAP	53	276	3
TTP	53	288	0	C	1	M1
TAP	53	288	4
XTP	54	0	6
XTP	54	0	7
TAP	54	48	4
TAP	54	48	5
TAP	54	96	2
TAP	54	96	3
TAP	54	144	1
TAP	54	168	0
TAP	54	216	5
TAP	54	240	4
TAP	54	288	2
TAP	54	288	3
TAP	54	336	1
TAP	54	336	4
XTP	55	0	0
XTP	55	0	1
TAP	55	48	2
TAP	55	48	3
TAP	55	96	4
TAP	55	96	5
TAP	55	144	6
TAP	55	168	7
TAP	55	216	2
TAP	55	240	3
TAP	55	288	4
TAP	55	288	5
TAP	55	336	3
TAP	55	336	6
TAP	56	0	1
TAP	56	24	0
TAP	56	72	2
TAP	56	72	7
TAP	56	120	3
TAP	56	144	3
TAP	56	192	6
TAP	56	216	7
TAP	56	264	0
TAP	56	264	5
TAP	56	312	4
TAP	56	336	4
TAP	57	0	1
TAP	57	24	3
TAP	57	72	3
TAP	57	72	4
TAP	57	120	6
TAP	57	144	4
TAP	57	192	4
TAP	57	192	6
TAP	57	216	5
TAP	57	264	1
TAP	57	264	3
TAP	57	288	2
XST	57	336	3
SI_	57	336	3	96	24	1
XTP	57	336	5
TAP	58	0	2
TAP	58	48	3
STR	58	48	5
SI_	58	48	5	96	24	7
TAP	58	96	4
STR	58	144	3
SCL	58	144	3	96	24	1
TAP	58	144	5
TAP	58	192	4
TAP	58	240	3
STR	58	240	5
SCR	58	240	5	96	24	7
TAP	58	288	4
STR	58	336	3
SI_	58	336	3	96	24	1
TAP	58	336	5
TAP	59	0	4
TAP	59	48	3
STR	59	48	5
SI_	59	48	5	96	24	7
TAP	59	96	4
STR	59	144	3
SCL	59	144	3	96	24	1
TAP	59	144	5
TAP	59	192	4
TAP	59	240	3
STR	59	240	5
SCR	59	240	5	96	24	7
TAP	59	288	4
STR	59	336	2
SI_	59	336	2	96	24	0
TAP	59	336	5
TAP	60	0	3
TAP	60	48	2
STR	60	48	4
SI_	60	48	4	96	24	6
TAP	60	96	3
STR	60	144	2
SCL	60	144	2	96	24	0
TAP	60	144	4
TAP	60	192	3
TAP	60	240	2
STR	60	240	4
SCR	60	240	4	96	24	6
TAP	60	288	3
STR	60	336	2
SI_	60	336	2	96	24	0
TAP	60	336	4
TAP	61	0	3
TAP	61	48	2
TAP	61	48	4
STR	61	96	3
SCL	61	96	3	96	48	0
SCR	61	96	3	96	48	6
TAP	61	144	2
TAP	61	144	4
STR	61	192	3
SF_	61	192	3	96	24	7
TTP	61	300	0	C	1	M1
TTP	62	96	4	E	0	M1
TAP	62	192	2
TAP	62	208	3
TAP	62	224	4
TAP	62	240	2
TAP	62	256	3
TAP	62	272	4
STR	62	288	2
SI_	62	288	2	96	48	0
SV_	62	288	2	96	48	7
TAP	62	304	3
TAP	62	320	4
TAP	62	336	2
TAP	62	352	3
TAP	62	368	4

T_REC_TAP	472
T_REC_BRK	8
T_REC_XTP	96
T_REC_HLD	12
T_REC_XHO	3
T_REC_STR	75
T_REC_BST	0
T_REC_XST	4
T_REC_TTP	12
T_REC_THO	0
T_REC_SLD	82
T_REC_ALL	764
T_NUM_TAP	659
T_NUM_BRK	8
T_NUM_HLD	15
T_NUM_SLD	82
T_NUM_ALL	764
T_JUDGE_TAP	667
T_JUDGE_HLD	56
T_JUDGE_SLD	82
T_JUDGE_ALL	805
TTM_EACHPAIRS	128
TTM_SCR_TAP	329500
TTM_SCR_BRK	20800
TTM_SCR_HLD	15000
TTM_SCR_SLD	123000
TTM_SCR_ALL	488300
TTM_SCR_S	472900
TTM_SCR_SS	487500
TTM_RAT_ACV	10016

