VERSION	0.00.00	1.03.00
FES_MODE	0
BPM_DEF	132.000	132.000	132.000	132.000
MET_DEF	4	4
RESOLUTION	384
CLK_DEF	384
COMPATIBLE_CODE	MA2

BPM	0	0	132.000
MET	0	0	4	4

TAP	2	0	6
TAP	2	96	1
TAP	2	168	6
TAP	2	216	6
TAP	2	288	1
TAP	3	0	6
TAP	3	96	1
TAP	3	168	6
TAP	3	216	6
TAP	3	288	1
STR	4	0	6
SXL	4	0	6	96	192	4
TAP	4	48	3
TAP	4	144	3
TAP	4	240	3
TAP	4	336	3
TAP	5	0	4
TAP	5	48	3
TAP	5	96	4
TAP	5	144	3
TAP	5	168	4
TAP	5	216	4
TAP	5	240	3
TTP	5	288	5	B	0	M1
TTP	5	288	6	E	0	M1
TTP	5	336	2	B	0	M1
TTP	5	336	2	E	0	M1
XTP	6	0	6
TAP	6	48	3
TAP	6	48	4
XTP	6	96	1
TAP	6	144	3
TAP	6	144	4
XTP	6	168	6
XTP	6	216	6
TAP	6	240	3
TAP	6	240	4
XTP	6	288	1
TAP	6	336	3
TAP	6	336	4
XTP	7	0	6
TAP	7	48	3
TAP	7	48	4
XTP	7	96	1
TAP	7	144	3
TAP	7	144	4
XTP	7	168	6
XTP	7	216	6
TAP	7	240	3
TAP	7	240	4
XTP	7	288	1
TAP	7	336	3
TAP	7	336	4
STR	8	0	5
SXR	8	0	5	96	192	7
TAP	8	48	0
TAP	8	144	0
TAP	8	240	0
TAP	8	336	0
HLD	9	0	0	48
HLD	9	96	1	48
HLD	9	96	7	48
STR	9	192	4
SF_	9	192	4	96	32	0
BRK	9	240	3
BRK	9	240	5
BRK	9	288	4
TTP	9	296	4	B	0	M1
TTP	9	304	0	C	0	M1
TTP	9	312	0	B	0	M1
TAP	10	0	3
TAP	10	0	5
TAP	10	48	2
TAP	10	96	0
TAP	10	96	1
TAP	10	144	6
TAP	10	168	7
TAP	10	216	7
TAP	10	240	6
TAP	10	288	0
TAP	10	288	1
TAP	10	336	2
TAP	10	336	6
TAP	11	0	3
TAP	11	0	4
TAP	11	48	5
TAP	11	96	6
TAP	11	96	7
TAP	11	144	1
TAP	11	168	0
TAP	11	216	0
TAP	11	240	1
TAP	11	288	6
TAP	11	288	7
TAP	11	336	1
TAP	11	336	5
TAP	12	0	5
TAP	12	24	4
XTP	12	72	3
XTP	12	72	6
TAP	12	120	0
TAP	12	120	7
TAP	12	144	0
TAP	12	144	7
TAP	12	192	2
TAP	12	216	3
XTP	12	264	1
XTP	12	264	4
TAP	12	312	0
TAP	12	312	7
TAP	12	336	0
TAP	12	336	7
TAP	13	0	5
TAP	13	24	4
XTP	13	72	3
XTP	13	72	6
TAP	13	120	0
TAP	13	120	7
TAP	13	144	0
TAP	13	144	7
XTP	13	192	1
XTP	13	192	3
XTP	13	264	4
XTP	13	264	6
BRK	13	336	0
BRK	13	336	7
XST	14	48	3
SI_	14	48	3	96	36	1
XST	14	48	4
SI_	14	48	4	96	36	7
TAP	14	96	2
TAP	14	96	5
XTP	14	144	3
XTP	14	144	4
XST	14	240	3
SI_	14	240	3	96	36	0
XST	14	240	4
SI_	14	240	4	96	36	6
TAP	14	288	2
TAP	14	288	5
XTP	14	336	3
XTP	14	336	4
XST	15	48	3
SXR	15	48	3	96	36	1
XST	15	48	4
SXL	15	48	4	96	36	6
TAP	15	96	2
TAP	15	96	5
XTP	15	144	3
XTP	15	144	4
XST	15	240	0
SXL	15	240	0	96	36	2
XST	15	240	7
SXR	15	240	7	96	36	5
TAP	15	288	1
TAP	15	288	6
XTP	15	336	0
XTP	15	336	7
XST	16	48	1
SXR	16	48	1	96	36	7
XST	16	48	5
SXR	16	48	5	96	36	3
TAP	16	96	2
TAP	16	96	6
XTP	16	144	1
XTP	16	144	5
XST	16	240	2
SXL	16	240	2	96	36	4
XST	16	240	6
SXL	16	240	6	96	36	0
TAP	16	288	1
TAP	16	288	5
XTP	16	336	2
XTP	16	336	6
XTP	17	48	3
XTP	17	48	4
TAP	17	96	2
TAP	17	96	5
XTP	17	144	3
XTP	17	144	4
BRK	17	192	2
BRK	17	192	7
TAP	17	216	2
TAP	17	216	7
BRK	17	264	0
BRK	17	264	5
TAP	17	288	0
TAP	17	288	5
BRK	17	336	1
BRK	17	336	6
STR	18	96	0
TTP	18	96	0	C	0	M1
SI_	18	96	0	96	96	4
TAP	18	336	2
TAP	18	336	6
TAP	19	0	2
TAP	19	0	6
TAP	19	96	5
TAP	19	144	4
TAP	19	144	5
HLD	19	168	4	120
TAP	19	168	5
TAP	19	240	7
HLD	19	288	5	96
TAP	19	336	7
HLD	20	0	4	96
TAP	20	48	7
STR	20	96	5
SXR	20	96	5	96	96	2
HLD	20	192	7	72
XTP	20	336	0
XTP	21	0	0
TAP	21	48	5
TAP	21	96	5
TAP	21	144	4
TAP	21	144	5
TAP	21	168	4
HLD	21	168	5	72
HLD	21	240	6	48
HLD	21	288	7	48
HLD	21	336	6	48
HLD	22	0	5	48
HLD	22	48	4	48
HLD	22	96	5	48
HLD	22	144	6	48
HLD	22	192	7	96
XTP	22	240	0
XTP	22	288	0
TAP	22	336	0
TAP	22	336	7
TAP	23	0	6
TAP	23	0	7
TAP	23	48	5
TAP	23	48	6
STR	23	96	4
SXR	23	96	4	96	72	4
STR	23	96	5
SXL	23	96	5	96	72	5
TAP	23	336	0
TAP	23	336	7
TAP	24	0	0
TAP	24	0	1
TAP	24	48	1
TAP	24	48	2
STR	24	96	2
SXR	24	96	2	96	72	2
STR	24	96	3
SXL	24	96	3	96	72	3
TAP	25	0	0
TAP	25	48	1
TAP	25	96	2
TAP	25	144	2
TAP	25	144	3
HLD	25	168	2	120
TAP	25	168	3
TAP	25	240	0
HLD	25	288	3	96
TAP	25	336	0
HLD	26	0	2	96
TAP	26	48	0
STR	26	96	0
SXL	26	96	0	96	96	3
SXR	26	96	0	96	96	5
HLD	27	0	6	36
HLD	27	0	7	36
XTP	27	48	0
XTP	27	48	5
XTP	27	60	1
XTP	27	60	4
XHO	27	72	2	36
XHO	27	72	3	36
XTP	27	120	1
XTP	27	120	4
XTP	27	132	0
XTP	27	132	5
XST	27	144	6
SCL	27	144	6	96	48	2
XST	27	144	7
SUL	27	144	7	96	48	1
TAP	27	336	0
TAP	28	0	6
TAP	28	0	7
TAP	28	48	5
TAP	28	96	6
TAP	28	96	7
TAP	28	144	0
TAP	28	192	6
HLD	28	192	7	72
HLD	28	264	0	72
TAP	28	336	1
HLD	29	0	0	36
HLD	29	0	1	36
XTP	29	48	2
XTP	29	48	7
XTP	29	60	3
XTP	29	60	6
XHO	29	72	4	36
XHO	29	72	5	36
XTP	29	120	3
XTP	29	120	6
XTP	29	132	2
XTP	29	132	7
XST	29	144	0
SUR	29	144	0	96	48	6
XST	29	144	1
SCR	29	144	1	96	48	5
TAP	29	336	7
TAP	30	0	0
TAP	30	0	1
TAP	30	48	2
TAP	30	96	0
TAP	30	96	1
TAP	30	144	7
HLD	30	192	0	72
HLD	30	192	1	72
HLD	31	0	2	36
HLD	31	0	6	36
XTP	31	48	1
XTP	31	48	5
XTP	31	60	0
XTP	31	60	4
XHO	31	72	3	36
XHO	31	72	7	36
XTP	31	120	0
XTP	31	120	4
XTP	31	132	1
XTP	31	132	5
XST	31	144	2
SCL	31	144	2	96	36	7
XST	31	144	6
SCL	31	144	6	96	36	3
TAP	31	336	4
TAP	32	0	0
TAP	32	0	5
TAP	32	48	1
TAP	32	96	2
TAP	32	96	7
TAP	32	144	6
HLD	32	192	4	72
TAP	32	192	5
HLD	32	264	3	72
TAP	32	336	2
TAP	33	0	2
HLD	33	24	2	168
TTP	33	72	0	B	0	M1
TTP	33	120	4	B	0	M1
TTP	33	168	0	C	0	M1
TAP	33	192	5
HLD	33	216	5	168
TTP	33	264	7	B	0	M1
TTP	33	312	3	B	0	M1
TTP	33	360	0	C	0	M1
TAP	34	0	1
HLD	34	24	1	168
TTP	34	72	2	B	0	M1
TTP	34	120	5	B	0	M1
TTP	34	168	0	C	0	M1
XTP	34	192	6
XTP	34	264	0
XTP	34	264	1
XTP	34	336	6
XTP	34	336	7
TAP	35	0	3
HLD	35	0	4	144
TAP	35	48	3
TAP	35	96	3
TAP	35	144	3
TAP	35	192	1
TAP	35	216	3
TAP	35	240	2
TAP	35	264	4
TAP	35	288	3
TAP	35	312	5
TAP	35	336	4
TAP	35	360	6
TTP	36	0	0	C	1	M1
TAP	36	192	1
TAP	36	192	6
TAP	36	240	2
TAP	36	240	5
XST	36	288	3
SCR	36	288	3	96	36	7
SXR	36	288	3	96	96	3
XTP	36	288	4
TTP	37	48	0	E	0	M1
TTP	37	56	0	B	0	M1
TTP	37	64	1	B	0	M1
TTP	37	72	2	B	0	M1
TTP	37	80	3	B	0	M1
TTP	37	88	4	E	0	M1
XST	37	96	4
SCL	37	96	4	96	36	0
SXL	37	96	4	96	96	4
TTP	37	240	0	E	0	M1
TTP	37	248	7	B	0	M1
TTP	37	256	6	B	0	M1
TTP	37	264	5	B	0	M1
TTP	37	272	4	B	0	M1
TTP	37	280	4	E	0	M1
XST	37	288	3
SCR	37	288	3	96	36	7
SXR	37	288	3	96	96	3
TTP	38	48	0	E	0	M1
TTP	38	56	0	B	0	M1
TTP	38	64	1	B	0	M1
TTP	38	72	2	B	0	M1
TTP	38	80	3	B	0	M1
TTP	38	88	4	E	0	M1
XST	38	96	4
SCL	38	96	4	96	36	0
SXL	38	96	4	96	96	4
TTP	38	240	0	E	0	M1
TTP	38	248	7	B	0	M1
TTP	38	256	6	B	0	M1
TTP	38	264	5	B	0	M1
TTP	38	272	4	B	0	M1
TTP	38	280	4	E	0	M1
TAP	39	0	2
TAP	39	0	3
TAP	39	48	1
TAP	39	48	4
TAP	39	96	0
TAP	39	96	5
TAP	39	144	6
STR	39	144	7
SCL	39	144	7	96	48	4
TAP	39	168	6
TAP	39	168	7
TAP	39	240	0
TAP	39	288	1
TAP	39	336	2
STR	40	0	3
SI_	40	0	3	96	36	0
STR	40	0	4
SI_	40	0	4	96	36	7
TAP	40	48	3
TAP	40	48	4
XTP	40	192	1
XTP	40	192	6
XTP	40	264	3
XTP	40	264	4
XTP	40	288	3
XST	40	288	4
SCL	40	288	4	96	36	0
SXL	40	288	4	96	96	4
TTP	41	48	0	E	0	M1
TTP	41	56	7	B	0	M1
TTP	41	64	6	B	0	M1
TTP	41	72	5	B	0	M1
TTP	41	80	4	B	0	M1
TTP	41	88	4	E	0	M1
XST	41	96	3
SCR	41	96	3	96	36	7
SXR	41	96	3	96	96	3
TTP	41	240	0	E	0	M1
TTP	41	248	0	B	0	M1
TTP	41	256	1	B	0	M1
TTP	41	264	2	B	0	M1
TTP	41	272	3	B	0	M1
TTP	41	280	4	E	0	M1
XST	41	288	4
SCL	41	288	4	96	36	0
SXL	41	288	4	96	96	4
TTP	42	48	0	E	0	M1
TTP	42	56	7	B	0	M1
TTP	42	64	6	B	0	M1
TTP	42	72	5	B	0	M1
TTP	42	80	4	B	0	M1
TTP	42	88	4	E	0	M1
XST	42	96	3
SCR	42	96	3	96	36	7
SXR	42	96	3	96	96	3
TTP	42	240	0	E	0	M1
TTP	42	248	0	B	0	M1
TTP	42	256	1	B	0	M1
TTP	42	264	2	B	0	M1
TTP	42	272	3	B	0	M1
TTP	42	280	4	E	0	M1
TAP	43	0	4
TAP	43	0	5
TAP	43	48	3
TAP	43	48	6
TAP	43	96	2
TAP	43	96	7
TAP	43	144	1
TAP	43	168	1
STR	43	192	0
SI_	43	192	0	96	24	4
STR	43	240	3
SI_	43	240	3	96	24	7
TAP	44	0	5
TAP	44	48	2
STR	44	96	3
SUR	44	96	3	96	72	4
STR	44	96	4
SCR	44	96	4	96	72	3
XTP	44	192	3
XTP	44	192	4
TTP	44	200	4	B	0	M1
TTP	44	208	5	B	0	M1
TTP	44	216	6	B	0	M1
TTP	44	224	7	B	0	M1
TTP	44	232	0	B	0	M1
TTP	44	240	1	B	0	M1
TTP	44	248	2	B	0	M1
TTP	44	256	3	B	0	M1
XTP	45	0	6
TTP	45	48	3	B	0	M1
TTP	45	48	4	B	0	M1
XTP	45	96	1
TTP	45	144	3	B	0	M1
TTP	45	144	4	B	0	M1
XTP	45	168	6
XTP	45	216	6
TTP	45	240	3	B	0	M1
TTP	45	240	4	B	0	M1
XTP	45	288	1
TTP	45	336	3	B	0	M1
TTP	45	336	4	B	0	M1
XTP	46	0	6
TTP	46	48	3	B	0	M1
TTP	46	48	4	B	0	M1
XTP	46	96	1
TTP	46	144	3	B	0	M1
TTP	46	144	4	B	0	M1
XTP	46	168	6
XTP	46	216	6
TTP	46	240	3	B	0	M1
TTP	46	240	4	B	0	M1
XTP	46	288	1
TTP	46	336	3	B	0	M1
TTP	46	336	4	B	0	M1
HLD	47	0	7	192
TAP	47	48	0
TAP	47	96	1
TAP	47	144	2
HLD	47	192	3	180
TAP	47	240	6
TAP	47	288	5
HLD	47	336	4	36
XTP	48	0	2
XTP	48	0	5
XTP	48	12	1
XTP	48	12	6
XHO	48	24	0	36
XHO	48	24	7	36
XTP	48	72	1
XTP	48	72	6
XTP	48	84	2
XTP	48	84	5
XHO	48	96	3	36
XHO	48	96	4	36
XTP	48	144	2
XTP	48	144	5
XTP	48	156	1
XTP	48	156	6
XHO	48	168	0	36
XHO	48	168	7	36
XTP	48	216	1
XTP	48	216	6
XTP	48	228	2
XTP	48	228	5
XTP	48	240	3
XTP	48	240	4
TTP	48	288	0	C	0	M1
TTP	48	288	1	B	0	M1
TTP	48	288	2	B	0	M1
TTP	48	288	5	B	0	M1
TTP	48	288	6	B	0	M1
TAP	49	0	6
XTP	49	0	7
TTP	49	48	3	B	0	M1
TTP	49	48	4	B	0	M1
XTP	49	96	0
TAP	49	96	1
TTP	49	144	3	B	0	M1
TTP	49	144	4	B	0	M1
TAP	49	168	6
XTP	49	168	7
TAP	49	216	6
XTP	49	216	7
TTP	49	240	3	B	0	M1
TTP	49	240	4	B	0	M1
XTP	49	288	0
TAP	49	288	1
TTP	49	336	3	B	0	M1
TTP	49	336	4	B	0	M1
TAP	50	0	6
XTP	50	0	7
TTP	50	48	3	B	0	M1
TTP	50	48	4	B	0	M1
XTP	50	96	0
TAP	50	96	1
TTP	50	144	3	B	0	M1
TTP	50	144	4	B	0	M1
TAP	50	168	6
XTP	50	168	7
TAP	50	216	6
XTP	50	216	7
TTP	50	240	3	B	0	M1
TTP	50	240	4	B	0	M1
XTP	50	288	0
TAP	50	288	1
TTP	50	336	3	B	0	M1
TTP	50	336	4	B	0	M1
TAP	51	48	1
TAP	51	48	5
TAP	51	96	2
TAP	51	96	6
TAP	51	144	3
TAP	51	144	7
TAP	51	192	0
TAP	51	192	4
TAP	51	240	3
TAP	51	240	7
TAP	51	288	2
TAP	51	288	6
TAP	51	336	1
TAP	51	336	5
TAP	52	0	0
HLD	52	0	4	288
THO	52	96	0	192	C	0	M1
TAP	53	0	2
TAP	53	0	7
TAP	53	72	0
TAP	53	72	5
TAP	53	144	3
TAP	53	144	4
STR	53	192	3
SF_	53	192	3	96	32	7
TAP	53	192	4
BRK	53	288	3
TTP	53	296	3	B	0	M1
TTP	53	304	0	C	0	M1
TTP	53	312	7	B	0	M1
TAP	54	0	2
TAP	54	0	4
TAP	54	48	5
TAP	54	96	6
TAP	54	96	7
TAP	54	144	1
TAP	54	168	0
TAP	54	216	0
TAP	54	240	1
TAP	54	288	6
TAP	54	288	7
TAP	54	336	1
TAP	54	336	5
TAP	55	0	3
TAP	55	0	4
TAP	55	48	2
TAP	55	96	0
TAP	55	96	1
TAP	55	144	6
TAP	55	168	7
TAP	55	216	7
TAP	55	240	6
TAP	55	288	0
TAP	55	288	1
TAP	55	336	2
TAP	55	336	6
TAP	56	0	2
TAP	56	24	3
XTP	56	72	4
XTP	56	72	6
TAP	56	120	0
TAP	56	120	7
TAP	56	144	0
TAP	56	144	7
TAP	56	192	5
TAP	56	216	4
XTP	56	264	1
XTP	56	264	3
TAP	56	312	0
TAP	56	312	7
TAP	56	336	0
TAP	56	336	7
TAP	57	0	2
TAP	57	24	3
XTP	57	72	4
XTP	57	72	6
TAP	57	120	0
TAP	57	120	7
TAP	57	144	0
TAP	57	144	7
XTP	57	192	1
XTP	57	192	3
XTP	57	264	4
XTP	57	264	6
BRK	57	336	0
BRK	57	336	7
XST	58	48	3
SI_	58	48	3	96	36	1
XST	58	48	4
SI_	58	48	4	96	36	7
TAP	58	96	2
TAP	58	96	5
XTP	58	144	3
XTP	58	144	4
XST	58	240	3
SI_	58	240	3	96	36	0
XST	58	240	4
SI_	58	240	4	96	36	6
TAP	58	288	2
TAP	58	288	5
XTP	58	336	3
XTP	58	336	4
XST	59	48	3
SXR	59	48	3	96	36	1
XST	59	48	4
SXL	59	48	4	96	36	6
TAP	59	96	2
TAP	59	96	5
XTP	59	144	3
XTP	59	144	4
XST	59	240	0
SXL	59	240	0	96	36	2
XST	59	240	7
SXR	59	240	7	96	36	5
TAP	59	288	1
TAP	59	288	6
XTP	59	336	0
XTP	59	336	7
XST	60	48	1
SXR	60	48	1	96	36	7
XST	60	48	5
SXR	60	48	5	96	36	3
TAP	60	96	2
TAP	60	96	6
XTP	60	144	1
XTP	60	144	5
XST	60	240	2
SXL	60	240	2	96	36	4
XST	60	240	6
SXL	60	240	6	96	36	0
TAP	60	288	1
TAP	60	288	5
XTP	60	336	2
XTP	60	336	6
XTP	61	48	0
XTP	61	48	4
XTP	61	96	1
XTP	61	96	5
XTP	61	144	2
XTP	61	144	6
XST	61	192	3
SXR	61	192	3	96	96	3
XST	61	192	7
SXR	61	192	7	96	96	7
XTP	61	216	3
XTP	61	216	7
XTP	61	264	3
XTP	61	264	7
XTP	61	288	3
XTP	61	288	7
TTP	62	96	0	C	0	M1
TTP	62	192	1	B	0	M1
TTP	62	192	1	E	0	M1
TTP	62	240	7	B	0	M1
TTP	62	240	7	E	0	M1
TTP	62	288	3	B	0	M1
TTP	62	288	3	E	0	M1
TTP	62	336	5	B	0	M1
TTP	62	336	5	E	0	M1
TAP	63	0	3
TAP	63	0	4

T_REC_TAP	303
T_REC_BRK	14
T_REC_XTP	149
T_REC_HLD	39
T_REC_XHO	12
T_REC_STR	18
T_REC_BST	0
T_REC_XST	40
T_REC_TTP	123
T_REC_THO	1
T_REC_SLD	67
T_REC_ALL	766
T_NUM_TAP	633
T_NUM_BRK	14
T_NUM_HLD	52
T_NUM_SLD	67
T_NUM_ALL	766
T_JUDGE_TAP	647
T_JUDGE_HLD	94
T_JUDGE_SLD	67
T_JUDGE_ALL	808
TTM_EACHPAIRS	203
TTM_SCR_TAP	316500
TTM_SCR_BRK	36400
TTM_SCR_HLD	52000
TTM_SCR_SLD	100500
TTM_SCR_ALL	505400
TTM_SCR_S	488900
TTM_SCR_SS	504000
TTM_RAT_ACV	10027

