VERSION	0.00.00	1.03.00
FES_MODE	0
BPM_DEF	132.000	132.000	132.000	132.000
MET_DEF	4	4
RESOLUTION	384
CLK_DEF	384
COMPATIBLE_CODE	MA2

BPM	0	0	132.000
MET	0	0	4	4

XTP	2	0	4
XTP	2	48	4
XTP	2	48	5
TAP	2	96	3
TAP	2	144	3
XTP	2	168	4
XTP	2	216	4
XTP	2	264	4
TAP	2	288	3
TAP	2	336	2
TAP	2	336	3
XTP	3	0	4
XTP	3	48	4
XTP	3	48	5
TAP	3	96	3
TAP	3	144	3
XTP	3	168	4
XTP	3	216	4
XTP	3	264	4
STR	3	288	3
SUR	3	288	3	96	240	4
TAP	3	336	2
TAP	3	336	3
TAP	5	0	2
STR	5	0	5
SUR	5	0	5	96	96	2
BRK	5	288	3
BRK	5	288	4
XTP	6	0	7
XTP	6	48	6
XTP	6	48	7
TAP	6	96	0
TAP	6	144	0
XTP	6	168	7
XTP	6	216	7
XTP	6	264	7
TAP	6	288	0
TAP	6	336	0
TAP	6	336	1
XTP	7	0	7
XTP	7	48	6
XTP	7	48	7
TAP	7	96	0
TAP	7	144	0
XTP	7	168	7
XTP	7	216	7
XTP	7	264	7
STR	7	288	0
SUL	7	288	0	96	240	7
TAP	7	336	0
TAP	7	336	1
BRK	9	0	0
BRK	9	0	7
BRK	9	96	1
BRK	9	96	6
BST	9	192	3
SI_	9	192	3	96	48	0
BST	9	192	4
SI_	9	192	4	96	48	7
BRK	9	240	3
BRK	9	240	4
TAP	10	0	2
TAP	10	0	4
TAP	10	48	1
TAP	10	96	2
TAP	10	96	3
TAP	10	144	1
TAP	10	192	3
TAP	10	192	5
TAP	10	240	6
TAP	10	288	4
TAP	10	288	5
TAP	10	336	6
TAP	11	0	2
TAP	11	0	4
TAP	11	48	1
TAP	11	96	2
TAP	11	96	3
TAP	11	144	1
TAP	11	192	3
TAP	11	192	5
TAP	11	240	6
TAP	11	288	4
TAP	11	288	5
TAP	11	336	6
HLD	12	0	0	72
HLD	12	72	1	72
TAP	12	144	2
HLD	12	192	7	72
HLD	12	264	6	72
TAP	12	336	5
HLD	13	0	0	72
HLD	13	72	1	72
TAP	13	144	2
XTP	13	192	1
XTP	13	192	3
XTP	13	264	4
XTP	13	264	6
BRK	13	336	0
BRK	13	336	7
TAP	14	0	5
XTP	14	48	0
XTP	14	48	6
TAP	14	96	5
XTP	14	144	6
XTP	14	144	7
TAP	14	192	2
XTP	14	240	1
XTP	14	240	7
TAP	14	288	2
XTP	14	336	0
XTP	14	336	1
TAP	15	0	5
XTP	15	48	0
XTP	15	48	6
TAP	15	96	5
XTP	15	144	6
XTP	15	144	7
TAP	15	192	2
XTP	15	240	1
XTP	15	240	7
TAP	15	288	2
XTP	15	336	0
XTP	15	336	1
TAP	16	0	5
XTP	16	48	0
XTP	16	48	6
TAP	16	96	5
XTP	16	144	6
XTP	16	144	7
TAP	16	192	2
XTP	16	240	1
XTP	16	240	7
TAP	16	288	2
XTP	16	336	0
XTP	16	336	1
TAP	17	0	3
TAP	17	0	4
XTP	17	48	3
XTP	17	48	4
STR	17	96	1
SLR	17	96	1	96	96	0
STR	17	96	6
SLL	17	96	6	96	96	7
XTP	17	144	1
XTP	17	144	6
THO	18	0	0	192	C	0	M1
TAP	18	336	0
TAP	18	336	7
TAP	19	0	0
TAP	19	0	7
HLD	19	96	5	72
TAP	19	144	4
TAP	19	168	4
TAP	19	240	3
TAP	19	288	3
TAP	19	336	2
HLD	20	0	1	48
HLD	20	48	3	48
HLD	20	96	2	48
HLD	20	144	4	48
XTP	20	192	3
XTP	20	264	4
XTP	20	264	5
TAP	20	336	6
TAP	21	0	6
TAP	21	48	5
HLD	21	96	5	72
TAP	21	144	4
TAP	21	168	4
TAP	21	240	3
HLD	21	288	5	48
HLD	21	336	3	48
HLD	22	0	4	48
HLD	22	48	2	48
HLD	22	96	3	48
STR	22	144	4
SCL	22	144	4	96	48	1
TAP	22	192	4
TAP	22	336	4
TAP	23	0	3
TAP	23	0	4
TTP	23	96	4	B	0	M1
TTP	23	144	2	B	0	M1
TTP	23	192	6	B	0	M1
TTP	23	240	1	B	0	M1
TTP	23	288	0	C	0	M1
TAP	24	0	0
TAP	24	0	7
TTP	24	96	5	B	0	M1
TTP	24	96	6	B	0	M1
TTP	24	96	6	E	0	M1
TTP	24	192	1	B	0	M1
TTP	24	192	2	B	0	M1
TTP	24	192	2	E	0	M1
TTP	24	288	0	C	0	M1
TTP	24	288	3	B	0	M1
TTP	24	288	4	B	0	M1
HLD	25	0	0	48
HLD	25	48	6	48
HLD	25	96	7	48
HLD	25	144	5	48
HLD	25	192	4	48
HLD	25	240	6	48
TAP	25	288	0
HLD	26	0	7	48
HLD	26	48	1	48
HLD	26	96	0	48
TAP	26	144	2
XTP	26	192	2
XTP	26	192	3
XTP	26	264	4
XTP	26	264	5
BRK	26	336	1
BRK	26	336	6
TAP	27	0	4
TAP	27	0	5
TAP	27	72	4
TAP	27	72	5
TAP	27	144	3
HLD	27	144	6	144
TAP	27	240	7
TAP	27	288	7
STR	28	0	1
SCR	28	0	1	96	48	4
TAP	28	48	1
TAP	28	96	0
STR	28	192	5
SCR	28	192	5	96	48	0
TAP	28	240	5
TAP	28	288	4
TAP	29	0	2
TAP	29	0	3
TAP	29	72	2
TAP	29	72	3
HLD	29	144	1	144
TAP	29	144	4
TAP	29	240	0
TAP	29	288	0
TTP	30	0	1	B	0	M1
TTP	30	0	3	B	0	M1
TTP	30	96	4	B	0	M1
TTP	30	96	6	B	0	M1
THO	30	192	0	96	C	0	M1
TTP	30	192	2	B	0	M1
TTP	30	192	2	E	0	M1
TTP	30	192	5	B	0	M1
TTP	30	192	6	E	0	M1
BRK	31	0	0
BRK	31	0	7
BRK	31	72	1
BRK	31	72	6
BRK	31	144	2
BRK	31	144	5
TAP	31	240	3
TAP	31	240	4
TAP	31	288	3
TAP	31	288	4
STR	32	0	6
SCL	32	0	6	96	48	3
TAP	32	48	6
TAP	32	96	7
STR	32	192	2
SCL	32	192	2	96	48	7
TAP	32	240	2
TAP	32	288	3
XTP	33	0	4
XTP	33	24	4
HLD	33	72	3	72
HLD	33	72	5	72
XTP	33	192	2
XTP	33	216	2
HLD	33	264	1	72
HLD	33	264	3	72
XTP	34	0	6
XTP	34	24	6
HLD	34	72	5	72
HLD	34	72	7	72
XTP	34	192	1
XTP	34	216	1
HLD	34	264	0	72
HLD	34	264	2	72
STR	35	0	0
SCR	35	0	0	96	192	7
STR	35	0	7
SCL	35	0	7	96	192	0
BRK	36	0	0
BRK	36	0	7
TAP	36	192	3
TAP	36	192	4
TAP	36	240	3
TAP	36	240	4
STR	36	288	0
SUR	36	288	0	96	48	5
STR	36	288	1
SCR	36	288	1	96	48	4
STR	37	96	6
SCL	37	96	6	96	48	3
STR	37	96	7
SUL	37	96	7	96	48	2
STR	37	288	0
SUR	37	288	0	96	48	5
STR	37	288	1
SCR	37	288	1	96	48	4
TAP	38	96	6
TAP	38	96	7
TAP	38	144	3
TAP	38	144	5
TAP	38	192	1
TAP	38	192	6
BRK	38	240	0
BRK	38	288	0
STR	39	0	6
SI_	39	0	6	96	48	3
TAP	39	48	6
STR	39	96	7
SI_	39	96	7	96	48	2
TAP	39	144	7
STR	39	192	6
SI_	39	192	6	96	48	3
TAP	39	240	6
TAP	39	288	7
TAP	39	336	7
TAP	40	0	5
TAP	40	48	3
TAP	40	48	4
TAP	40	96	2
TAP	40	96	5
TTP	40	192	0	C	1	M1
TTP	40	192	1	B	0	M1
TTP	40	192	2	B	0	M1
TTP	40	192	5	B	0	M1
TTP	40	192	6	B	0	M1
STR	40	288	4
SUR	40	288	4	96	48	1
STR	40	288	5
SCR	40	288	5	96	48	0
STR	41	96	2
SCL	41	96	2	96	48	7
STR	41	96	3
SUL	41	96	3	96	48	6
STR	41	288	4
SUR	41	288	4	96	48	1
STR	41	288	5
SCR	41	288	5	96	48	0
TAP	42	96	2
TAP	42	96	3
TAP	42	144	1
TAP	42	144	7
TAP	42	192	2
TAP	42	192	5
BRK	42	240	6
BRK	42	288	6
STR	43	0	2
SI_	43	0	2	96	48	7
TAP	43	48	2
STR	43	96	3
SI_	43	96	3	96	48	6
TAP	43	144	3
STR	43	192	2
SI_	43	192	2	96	48	7
TAP	43	240	2
TAP	43	288	3
TAP	43	336	3
TAP	44	0	0
TAP	44	0	7
TAP	44	48	0
TAP	44	48	7
TAP	44	96	1
TAP	44	96	6
TAP	44	144	2
TAP	44	144	5
BRK	44	192	3
BRK	44	192	4
BRK	44	264	1
BRK	44	264	6
HLD	45	0	6	48
HLD	45	0	7	48
TAP	45	96	0
TAP	45	96	1
TAP	45	168	6
TAP	45	168	7
TAP	45	216	6
TAP	45	216	7
TAP	45	288	0
TAP	45	288	1
HLD	46	0	5	48
HLD	46	0	7	48
TAP	46	96	0
TAP	46	96	2
TAP	46	168	5
TAP	46	168	7
TAP	46	216	5
TAP	46	216	7
TAP	46	288	0
TAP	46	288	2
TAP	47	0	1
HLD	47	48	1	48
TAP	47	96	3
HLD	47	144	3	48
TAP	47	192	4
HLD	47	240	4	48
TAP	47	288	6
HLD	47	336	6	48
BRK	48	0	7
BRK	48	72	0
BRK	48	72	1
BRK	48	144	2
BRK	48	144	3
BRK	48	216	4
BRK	48	216	5
BRK	48	288	1
BRK	48	288	6
HLD	49	0	4	48
HLD	49	0	5	48
TAP	49	96	2
TAP	49	96	3
TAP	49	168	4
TAP	49	168	5
TAP	49	216	4
TAP	49	216	5
TAP	49	288	2
TAP	49	288	3
HLD	50	0	4	48
HLD	50	0	6	48
TAP	50	96	1
TAP	50	96	3
TAP	50	168	4
TAP	50	168	6
TAP	50	216	4
TAP	50	216	6
TAP	50	288	1
TAP	50	288	3
HLD	51	0	0	48
TAP	51	0	7
HLD	51	48	1	48
HLD	51	96	2	48
HLD	51	144	3	48
HLD	51	192	4	48
HLD	51	240	5	48
HLD	51	288	6	48
HLD	51	336	7	48
HLD	52	0	0	384
TTP	52	96	6	B	0	M1
TTP	52	144	5	B	0	M1
TTP	52	192	4	B	0	M1
TTP	52	240	3	B	0	M1
TTP	52	288	2	B	0	M1
BRK	53	0	7
BRK	53	72	3
BRK	53	72	4
BRK	53	144	1
BRK	53	144	6
BRK	53	192	1
BRK	53	192	6
TTP	53	288	0	C	1	M1
TAP	54	0	3
TAP	54	0	5
TAP	54	48	6
TAP	54	96	4
TAP	54	96	5
TAP	54	144	6
TAP	54	192	2
TAP	54	192	4
TAP	54	240	1
TAP	54	288	2
TAP	54	288	3
TAP	54	336	1
TAP	55	0	3
TAP	55	0	5
TAP	55	48	6
TAP	55	96	4
TAP	55	96	5
TAP	55	144	6
TAP	55	192	2
TAP	55	192	4
TAP	55	240	1
TAP	55	288	2
TAP	55	288	3
TAP	55	336	1
HLD	56	0	7	72
HLD	56	72	6	72
TAP	56	144	5
HLD	56	192	0	72
HLD	56	264	1	72
TAP	56	336	2
HLD	57	0	7	72
HLD	57	72	6	72
TAP	57	144	5
XTP	57	192	4
XTP	57	192	6
XTP	57	264	1
XTP	57	264	3
BRK	57	336	0
BRK	57	336	7
TAP	58	0	2
XTP	58	48	1
XTP	58	48	7
TAP	58	96	2
XTP	58	144	0
XTP	58	144	1
TAP	58	192	5
XTP	58	240	0
XTP	58	240	6
TAP	58	288	5
XTP	58	336	6
XTP	58	336	7
TAP	59	0	2
XTP	59	48	1
XTP	59	48	7
TAP	59	96	2
XTP	59	144	0
XTP	59	144	1
TAP	59	192	5
XTP	59	240	0
XTP	59	240	6
TAP	59	288	5
XTP	59	336	6
XTP	59	336	7
TAP	60	0	2
XTP	60	48	1
XTP	60	48	7
TAP	60	96	2
XTP	60	144	0
XTP	60	144	1
TAP	60	192	5
XTP	60	240	0
XTP	60	240	6
TAP	60	288	5
XTP	60	336	6
XTP	60	336	7
TAP	61	0	3
TAP	61	0	4
XTP	61	48	3
XTP	61	48	4
STR	61	96	1
SLR	61	96	1	96	96	0
STR	61	96	6
SLL	61	96	6	96	96	7
XTP	61	144	1
XTP	61	144	6
TAP	62	0	1
TAP	62	0	6
TTP	62	96	0	C	0	M1
XTP	62	192	0
XTP	62	216	7
XTP	62	240	1
XTP	62	264	6
XTP	62	288	2
XTP	62	312	5
XTP	62	336	3
XTP	62	360	4
BRK	63	0	3

T_REC_TAP	228
T_REC_BRK	47
T_REC_XTP	111
T_REC_HLD	63
T_REC_XHO	0
T_REC_STR	32
T_REC_BST	2
T_REC_XST	0
T_REC_TTP	34
T_REC_THO	2
T_REC_SLD	34
T_REC_ALL	553
T_NUM_TAP	405
T_NUM_BRK	49
T_NUM_HLD	65
T_NUM_SLD	34
T_NUM_ALL	553
T_JUDGE_TAP	454
T_JUDGE_HLD	102
T_JUDGE_SLD	34
T_JUDGE_ALL	590
TTM_EACHPAIRS	144
TTM_SCR_TAP	202500
TTM_SCR_BRK	127400
TTM_SCR_HLD	65000
TTM_SCR_SLD	51000
TTM_SCR_ALL	445900
TTM_SCR_S	427800
TTM_SCR_SS	441000
TTM_RAT_ACV	10111

