VERSION	0.00.00	1.03.00
FES_MODE	0
BPM_DEF	132.000	132.000	132.000	132.000
MET_DEF	4	4
RESOLUTION	384
CLK_DEF	384
COMPATIBLE_CODE	MA2

BPM	0	0	132.000
MET	0	0	4	4

TAP	2	0	3
TAP	2	96	3
TAP	2	192	3
TAP	2	192	4
TAP	3	0	4
TAP	3	96	4
TAP	3	192	3
TAP	3	192	4
HLD	4	0	2	192
HLD	4	0	3	192
HLD	5	0	4	192
HLD	5	0	5	192
TAP	6	0	2
TAP	6	96	2
TAP	6	192	2
TAP	6	192	3
TAP	7	0	5
TAP	7	96	5
TAP	7	192	4
TAP	7	192	5
TAP	8	0	6
TAP	8	96	6
TAP	8	192	7
TAP	8	288	7
XTP	9	0	0
XTP	9	96	1
XTP	9	192	2
XTP	9	192	5
XTP	9	288	0
XTP	9	288	7
TAP	10	0	1
TAP	10	96	0
TAP	10	96	1
TAP	10	192	6
TAP	10	288	6
TAP	10	288	7
TAP	11	0	0
TAP	11	0	7
TAP	11	96	0
TAP	11	96	7
TAP	11	192	1
TAP	11	192	6
TAP	12	0	2
TAP	12	96	2
TAP	12	96	3
TAP	12	192	5
TAP	12	288	4
TAP	12	288	5
TAP	13	0	3
TAP	13	96	3
TAP	13	96	4
XTP	13	192	2
XTP	13	192	5
TAP	14	0	6
TAP	14	96	6
TAP	14	96	7
TAP	14	192	1
TAP	14	288	0
TAP	14	288	1
TAP	15	0	6
TAP	15	96	6
TAP	15	96	7
TAP	15	192	1
TAP	15	288	0
TAP	15	288	1
TAP	16	0	2
TAP	16	96	2
TAP	16	96	3
TAP	16	192	5
TAP	16	288	4
TAP	16	288	5
TAP	17	0	3
TAP	17	96	3
TAP	17	96	4
XTP	17	192	2
XTP	17	192	5
STR	18	0	0
SI_	18	0	0	96	96	3
STR	18	0	7
SI_	18	0	7	96	96	4
HLD	19	0	2	192
TAP	19	96	3
TAP	19	192	3
HLD	20	0	5	192
TAP	20	96	4
TAP	20	192	4
HLD	21	0	6	192
TAP	21	96	7
TAP	21	192	7
TAP	22	0	0
TAP	22	96	0
TAP	22	192	1
TAP	22	288	2
HLD	23	0	2	96
HLD	23	0	3	96
TAP	23	192	2
TAP	23	192	3
HLD	24	0	4	96
HLD	24	0	5	96
TAP	24	192	4
TAP	24	192	5
TAP	25	0	6
TAP	25	0	7
TAP	25	96	6
TAP	25	96	7
TAP	25	192	0
TAP	25	192	7
TAP	25	288	0
TAP	25	288	7
TAP	26	0	0
TAP	26	0	1
TAP	26	96	0
TAP	26	96	1
XTP	26	192	2
XTP	26	192	7
STR	27	0	0
SI_	27	0	0	96	192	4
TAP	28	0	5
TAP	28	96	5
TAP	28	192	6
TAP	28	288	6
STR	29	0	7
SI_	29	0	7	96	192	3
TAP	30	0	2
TAP	30	96	2
TAP	30	192	2
TAP	30	192	3
TAP	30	288	2
TAP	30	288	3
STR	31	0	1
SI_	31	0	1	96	192	5
TAP	32	0	6
TAP	32	96	6
TAP	32	192	6
TAP	32	192	7
TAP	32	288	6
TAP	32	288	7
STR	33	0	0
SI_	33	0	0	96	192	3
STR	34	0	4
SI_	34	0	4	96	192	7
TAP	35	0	0
TAP	35	96	0
TAP	35	192	0
TAP	35	192	7
TAP	35	288	0
TAP	35	288	7
XTP	36	0	1
XTP	36	0	6
TAP	36	192	4
TAP	36	288	3
TAP	36	288	4
XTP	37	0	2
TAP	37	48	2
TAP	37	96	2
TAP	37	96	3
TAP	37	192	5
TAP	37	240	5
TAP	37	288	4
TAP	37	288	5
TAP	38	0	6
TAP	38	0	7
TAP	38	96	0
TAP	38	96	1
BRK	38	192	2
BRK	38	192	7
TAP	39	0	2
TAP	39	48	2
TAP	39	96	1
TAP	39	96	3
TAP	39	192	5
TAP	39	240	5
TAP	39	288	4
TAP	39	288	6
HLD	40	0	3	96
HLD	40	0	4	96
TAP	40	192	3
TAP	40	192	4
TAP	40	288	2
TAP	40	288	5
XTP	41	0	1
TAP	41	48	1
TAP	41	96	0
TAP	41	96	1
TAP	41	192	6
TAP	41	240	6
TAP	41	288	6
TAP	41	288	7
TAP	42	0	4
TAP	42	0	5
TAP	42	96	2
TAP	42	96	3
BRK	42	192	1
BRK	42	192	4
TAP	43	0	5
TAP	43	48	5
TAP	43	96	4
TAP	43	96	6
TAP	43	192	2
TAP	43	240	2
TAP	43	288	1
TAP	43	288	3
HLD	44	0	0	96
HLD	44	0	1	96
XTP	44	192	2
XTP	44	192	7
TTP	45	0	1	E	0	L1
TTP	45	96	0	C	0	L1
TTP	45	192	5	E	0	L1
TTP	45	288	4	E	0	L1
TTP	46	0	3	E	0	L1
TTP	46	96	0	C	0	L1
TTP	46	192	1	B	0	L1
TTP	46	192	6	B	0	L1
TTP	47	0	0	E	0	L1
TTP	47	96	0	B	0	L1
TTP	47	96	7	B	0	L1
TTP	47	192	1	B	0	L1
TTP	47	192	6	B	0	L1
TTP	47	288	2	E	0	L1
TTP	47	288	6	E	0	L1
THO	48	0	0	192	C	0	L1
TTP	49	0	7	E	0	L1
TTP	49	96	0	C	0	L1
TTP	49	192	3	E	0	L1
TTP	49	288	4	E	0	L1
TTP	50	0	5	E	0	L1
TTP	50	96	0	C	0	L1
TTP	50	192	1	B	0	L1
TTP	50	192	6	B	0	L1
TAP	51	0	0
TAP	51	0	7
TAP	51	96	1
TAP	51	96	6
TAP	51	192	2
TAP	51	192	5
STR	51	288	3
SI_	51	288	3	96	192	0
STR	51	288	4
SI_	51	288	4	96	192	7
THO	53	0	0	192	C	1	L1
XTP	54	0	0
XTP	54	0	7
TAP	54	96	1
TAP	54	96	6
TAP	54	192	2
TAP	54	192	3
TAP	54	288	2
TAP	54	288	3
TAP	55	0	3
TAP	55	0	4
TAP	55	96	2
TAP	55	96	5
TAP	55	192	6
TAP	55	192	7
TAP	55	288	6
TAP	55	288	7
HLD	56	0	0	96
HLD	56	0	1	96
HLD	56	192	6	96
HLD	56	192	7	96
TAP	57	0	0
TAP	57	0	7
TAP	57	96	1
TAP	57	96	6
TAP	57	192	2
TAP	57	192	5
TAP	58	0	2
TAP	58	0	3
TAP	58	96	1
TAP	58	96	4
TAP	58	192	4
TAP	58	192	5
TAP	58	288	3
TAP	58	288	6
TAP	59	0	6
TAP	59	0	7
TAP	59	96	0
TAP	59	96	5
TAP	59	192	0
TAP	59	192	1
TAP	59	288	2
TAP	59	288	7
TAP	60	0	2
TAP	60	0	3
TAP	60	96	0
TAP	60	96	5
TAP	60	192	4
TAP	60	192	5
TAP	60	288	2
TAP	60	288	7
TAP	61	0	3
TAP	61	0	4
TAP	61	96	3
TAP	61	96	4
TTP	61	192	0	C	1	L1
TTP	61	192	1	B	0	L1
TTP	61	192	6	B	0	L1
XTP	63	0	0
XTP	63	0	7

T_REC_TAP	209
T_REC_BRK	4
T_REC_XTP	22
T_REC_HLD	19
T_REC_XHO	0
T_REC_STR	9
T_REC_BST	0
T_REC_XST	0
T_REC_TTP	26
T_REC_THO	2
T_REC_SLD	9
T_REC_ALL	300
T_NUM_TAP	266
T_NUM_BRK	4
T_NUM_HLD	21
T_NUM_SLD	9
T_NUM_ALL	300
T_JUDGE_TAP	270
T_JUDGE_HLD	60
T_JUDGE_SLD	9
T_JUDGE_ALL	339
TTM_EACHPAIRS	96
TTM_SCR_TAP	133000
TTM_SCR_BRK	10400
TTM_SCR_HLD	21000
TTM_SCR_SLD	13500
TTM_SCR_ALL	177900
TTM_SCR_S	172200
TTM_SCR_SS	177500
TTM_RAT_ACV	10022

