VERSION	0.00.00	1.03.00
FES_MODE	0
BPM_DEF	132.000	132.000	132.000	132.000
MET_DEF	4	4
RESOLUTION	384
CLK_DEF	384
COMPATIBLE_CODE	MA2

BPM	0	0	132.000
MET	0	0	4	4

TAP	2	0	4
TAP	2	192	4
TAP	3	0	3
TAP	3	192	3
HLD	4	0	4	384
TAP	6	0	3
TAP	6	192	3
TAP	7	0	4
TAP	7	192	4
TAP	8	0	3
TAP	8	192	3
XTP	9	0	3
XTP	9	0	4
XTP	9	96	3
XTP	9	96	4
XTP	9	192	3
XTP	9	192	4
TAP	10	0	5
TAP	10	96	5
TAP	10	192	5
TAP	11	0	6
TAP	11	96	6
TAP	11	192	6
TAP	12	0	7
TAP	12	96	7
TAP	12	192	7
TAP	13	0	0
TAP	13	96	0
TAP	13	192	0
TAP	13	192	7
TAP	14	0	1
TAP	14	96	1
TAP	14	192	1
TAP	15	0	2
TAP	15	96	2
TAP	15	192	2
TAP	16	0	3
TAP	16	96	3
TAP	16	192	3
TAP	17	0	4
TAP	17	96	4
TAP	17	192	3
TAP	17	192	4
TAP	19	0	3
TAP	19	192	3
TAP	20	0	2
TAP	20	96	2
TAP	20	192	2
TAP	21	0	1
TAP	21	192	1
TAP	22	0	0
TAP	22	96	0
TAP	22	192	0
TAP	23	0	7
TAP	23	192	7
TAP	24	0	6
TAP	24	96	6
TAP	24	192	6
TAP	25	0	5
TAP	25	192	5
TAP	26	0	3
TAP	26	0	4
TAP	26	96	3
TAP	26	96	4
TAP	26	192	3
TAP	26	192	4
STR	27	0	2
SI_	27	0	2	96	192	5
TAP	28	192	6
STR	29	0	5
SI_	29	0	5	96	192	2
TAP	30	192	1
STR	31	0	2
SI_	31	0	2	96	192	5
TAP	32	192	6
TTP	33	0	5	B	0	L1
TTP	33	192	4	B	0	L1
TTP	34	0	3	B	0	L1
TTP	34	192	2	B	0	L1
THO	35	0	0	384	C	1	L1
XTP	37	0	0
XTP	37	0	6
XTP	37	96	0
XTP	37	96	6
XTP	37	192	0
XTP	37	192	6
XTP	38	0	1
XTP	38	0	7
XTP	38	96	1
XTP	38	96	7
BRK	38	192	1
BRK	38	192	7
TAP	39	0	2
TAP	39	192	3
TAP	40	0	4
TAP	40	0	5
TAP	40	192	6
XTP	41	0	1
XTP	41	0	7
XTP	41	96	1
XTP	41	96	7
XTP	41	192	1
XTP	41	192	7
XTP	42	0	0
XTP	42	0	6
XTP	42	96	0
XTP	42	96	6
BRK	42	192	0
BRK	42	192	6
TAP	43	0	5
TAP	43	192	4
TAP	44	0	2
TAP	44	0	3
BRK	44	192	1
TAP	45	0	2
TAP	45	96	2
TAP	45	192	2
TAP	45	192	3
TAP	46	0	5
TAP	46	96	5
TAP	46	192	4
TAP	46	192	5
TAP	47	0	6
TAP	47	192	7
TAP	48	0	0
TAP	48	192	1
TAP	49	0	2
TAP	49	96	2
TAP	49	192	2
TAP	49	192	3
TAP	50	0	5
TAP	50	96	5
TAP	50	192	4
TAP	50	192	5
TAP	51	0	3
TAP	51	192	2
TAP	52	0	1
TAP	52	192	0
XTP	53	0	0
XTP	53	0	7
XTP	53	96	0
XTP	53	96	7
XTP	53	192	0
XTP	53	192	7
TAP	54	0	6
TAP	54	96	6
TAP	54	192	6
TAP	55	0	5
TAP	55	96	5
TAP	55	192	4
TAP	55	192	5
TAP	56	0	4
TAP	56	96	4
TAP	56	192	4
TAP	57	0	3
TAP	57	96	3
TAP	57	192	3
TAP	57	192	4
TAP	58	0	2
TAP	58	96	2
TAP	58	192	2
TAP	59	0	1
TAP	59	96	1
TAP	59	192	0
TAP	59	192	1
TAP	60	0	0
TAP	60	96	0
TAP	60	192	0
TAP	61	0	7
TAP	61	96	7
TAP	61	192	0
TAP	61	192	7
XHO	62	0	1	384
XHO	62	0	6	384

T_REC_TAP	123
T_REC_BRK	5
T_REC_XTP	32
T_REC_HLD	1
T_REC_XHO	2
T_REC_STR	3
T_REC_BST	0
T_REC_XST	0
T_REC_TTP	4
T_REC_THO	1
T_REC_SLD	3
T_REC_ALL	174
T_NUM_TAP	162
T_NUM_BRK	5
T_NUM_HLD	4
T_NUM_SLD	3
T_NUM_ALL	174
T_JUDGE_TAP	167
T_JUDGE_HLD	32
T_JUDGE_SLD	3
T_JUDGE_ALL	202
TTM_EACHPAIRS	34
TTM_SCR_TAP	81000
TTM_SCR_BRK	13000
TTM_SCR_HLD	4000
TTM_SCR_SLD	4500
TTM_SCR_ALL	102500
TTM_SCR_S	98950
TTM_SCR_SS	102000
TTM_RAT_ACV	10049

