VERSION	0.00.00	1.03.00
FES_MODE	0
BPM_DEF	190.000	190.000	190.000	190.000
MET_DEF	4	4
RESOLUTION	384
CLK_DEF	384
COMPATIBLE_CODE	MA2

BPM	0	0	190.000
MET	0	0	4	4

TTP	4	0	2	E	0	M1
TTP	4	48	4	E	0	M1
TTP	4	96	3	E	0	M1
TTP	4	144	5	E	0	M1
TTP	4	288	6	E	0	M1
TTP	4	336	4	E	0	M1
TTP	5	0	5	E	0	M1
TTP	5	48	3	E	0	M1
STR	5	192	2
SCR	5	192	2	96	48	5
TTP	6	0	6	E	0	M1
TTP	6	48	4	E	0	M1
TTP	6	96	5	E	0	M1
TTP	6	144	3	E	0	M1
TTP	6	288	2	E	0	M1
TTP	6	336	4	E	0	M1
TTP	7	0	3	E	0	M1
TTP	7	48	5	E	0	M1
STR	7	192	5
SCL	7	192	5	96	48	2
TTP	8	0	1	E	0	M1
TTP	8	48	3	E	0	M1
TTP	8	96	2	E	0	M1
TTP	8	144	4	E	0	M1
TTP	8	288	7	E	0	M1
TTP	8	336	5	E	0	M1
TTP	9	0	6	E	0	M1
TTP	9	48	4	E	0	M1
STR	9	192	4
SI_	9	192	4	96	48	0
TTP	10	0	1	E	0	M1
TTP	10	48	3	E	0	M1
TTP	10	96	2	E	0	M1
TTP	10	144	0	C	0	M1
TTP	10	288	7	E	0	M1
TTP	10	336	5	E	0	M1
TTP	11	0	6	E	0	M1
THO	11	48	0	240	C	0	M1
TAP	12	0	4
HLD	12	0	6	96
TAP	12	96	5
HLD	12	144	4	96
HLD	12	144	7	96
TAP	12	288	3
TAP	12	288	5
HLD	13	0	1	96
TAP	13	0	3
TAP	13	96	2
HLD	13	144	0	144
HLD	13	144	3	96
BRK	13	288	7
HLD	14	0	3	96
TAP	14	0	4
TAP	14	96	7
HLD	14	144	1	96
HLD	14	144	5	96
STR	14	288	2
SLR	14	288	2	96	192	1
STR	14	288	6
SLR	14	288	6	96	192	5
TTP	15	288	0	C	1	M1
TAP	16	0	3
TAP	16	0	4
TAP	16	48	2
TAP	16	96	1
TAP	16	96	3
TAP	16	192	3
TAP	16	192	4
TAP	16	240	5
TAP	16	288	4
TAP	16	288	6
TAP	17	0	3
TAP	17	0	4
TAP	17	48	2
TAP	17	96	0
TAP	17	96	1
TAP	17	192	3
TAP	17	192	4
TAP	17	240	5
TAP	17	288	6
TAP	17	288	7
TAP	18	0	2
TAP	18	0	3
TAP	18	48	1
TAP	18	96	4
TAP	18	96	5
TAP	18	144	6
TAP	18	192	0
TAP	18	192	7
TAP	18	240	1
TAP	18	240	6
TAP	18	288	2
TAP	18	288	5
TAP	18	336	3
TAP	18	336	4
TAP	19	0	3
TAP	19	24	4
TAP	19	48	2
TAP	19	72	5
STR	19	96	1
SUL	19	96	1	96	48	5
TAP	19	120	6
TAP	19	144	0
TAP	19	168	7
STR	19	192	1
SUR	19	192	1	96	48	5
HLD	20	0	0	48
TTP	20	48	7	E	0	M1
HLD	20	144	4	48
TTP	20	192	3	E	0	M1
STR	20	288	1
SCL	20	288	1	96	144	4
TTP	20	336	0	C	0	M1
TAP	21	240	0
TAP	21	240	7
HLD	22	0	4	48
TTP	22	48	6	E	0	M1
HLD	22	144	0	48
TTP	22	192	2	E	0	M1
STR	22	288	6
SLR	22	288	6	96	144	4
TTP	22	336	5	B	0	M1
STR	23	48	1
SCL	23	48	1	96	192	2
HLD	24	0	5	48
TTP	24	48	7	E	0	M1
HLD	24	144	1	48
TTP	24	192	3	E	0	M1
STR	24	288	4
SSL	24	288	4	96	144	0
TTP	24	336	0	C	0	M1
TAP	25	240	2
TAP	25	240	6
HLD	26	0	1	48
TTP	26	48	2	E	0	M1
HLD	26	144	5	48
TTP	26	192	6	E	0	M1
HLD	26	288	3	48
TTP	26	336	4	E	0	M1
TAP	27	48	0
TAP	27	96	1
TAP	27	144	2
TAP	27	192	4
TAP	27	216	3
TAP	27	240	4
BRK	27	288	1
BRK	27	288	6
HLD	28	0	7	48
TTP	28	48	6	B	0	M1
TTP	28	48	7	E	0	M1
HLD	28	144	3	48
TTP	28	192	2	B	0	M1
TTP	28	192	3	E	0	M1
STR	28	288	5
SCL	28	288	5	96	144	2
SUR	28	288	5	96	144	2
TTP	28	336	0	C	0	M1
TTP	28	336	4	E	0	M1
TAP	29	240	3
TAP	29	240	4
HLD	30	0	0	48
TTP	30	48	0	E	0	M1
TTP	30	48	7	B	0	M1
HLD	30	144	4	48
TTP	30	192	3	B	0	M1
TTP	30	192	4	E	0	M1
STR	30	288	1
SUL	30	288	1	96	96	4
TTP	30	336	2	B	0	M1
TTP	30	336	2	E	0	M1
STR	31	48	6
SCR	31	48	6	96	192	5
HLD	32	0	2	48
TTP	32	48	1	B	0	M1
TTP	32	48	2	E	0	M1
HLD	32	144	6	48
TTP	32	192	5	B	0	M1
TTP	32	192	6	E	0	M1
STR	32	288	3
SUR	32	288	3	96	144	4
TTP	32	336	0	C	0	M1
TTP	32	336	4	E	0	M1
TAP	33	240	0
TAP	33	240	7
HLD	34	0	5	48
TTP	34	48	5	E	0	M1
TTP	34	48	6	E	0	M1
HLD	34	144	1	48
TTP	34	192	1	E	0	M1
TTP	34	192	2	E	0	M1
HLD	34	288	4	48
TTP	34	336	0	C	0	M1
TTP	34	336	4	E	0	M1
TAP	35	48	2
TAP	35	72	3
TAP	35	96	1
TAP	35	144	5
TAP	35	168	4
TAP	35	192	6
TAP	35	240	0
TAP	35	240	7
BRK	35	288	1
BRK	35	288	6
TAP	36	0	3
TAP	36	0	4
XTP	36	48	5
TAP	36	60	4
TAP	36	72	5
TAP	36	84	4
TAP	36	144	3
TAP	36	144	4
XST	36	192	2
SI_	36	192	2	96	48	7
TAP	36	204	3
TAP	36	216	2
TAP	36	228	3
STR	36	288	5
SI_	36	288	5	96	48	0
STR	37	0	1
SI_	37	0	1	96	48	4
STR	37	96	6
SUL	37	96	6	96	48	1
STR	37	192	1
SUR	37	192	1	96	48	6
HLD	38	0	3	96
HLD	38	144	4	96
HLD	38	144	6	96
TAP	38	288	4
STR	38	288	5
SCR	38	288	5	96	288	2
HLD	39	0	4	96
HLD	39	144	4	96
TAP	39	288	4
TAP	40	0	3
TAP	40	0	4
XTP	40	48	2
TAP	40	60	3
TAP	40	72	2
TAP	40	84	3
TAP	40	144	3
TAP	40	144	4
XST	40	192	5
SI_	40	192	5	96	48	0
TAP	40	204	4
TAP	40	216	5
TAP	40	228	4
STR	40	288	2
SI_	40	288	2	96	48	7
STR	41	0	6
SI_	41	0	6	96	48	3
STR	41	96	1
SUR	41	96	1	96	48	6
STR	41	192	6
SUL	41	192	6	96	48	1
TAP	42	0	4
TAP	42	96	2
TAP	42	144	2
TAP	42	192	3
STR	42	288	2
SCL	42	288	2	96	192	5
TAP	42	288	3
TAP	43	0	3
TAP	43	96	4
TAP	43	192	3
TAP	43	288	4
TAP	44	0	3
TAP	44	0	4
XTP	44	48	5
TAP	44	60	4
TAP	44	72	5
TAP	44	84	4
TAP	44	144	3
TAP	44	144	4
XST	44	192	2
SI_	44	192	2	96	48	7
TAP	44	204	3
TAP	44	216	2
TAP	44	228	3
STR	44	288	6
SI_	44	288	6	96	48	3
STR	45	0	1
SI_	45	0	1	96	48	4
STR	45	96	5
SUR	45	96	5	96	48	2
STR	45	192	2
SV_	45	192	2	96	24	7
HLD	46	0	6	96
HLD	46	144	4	96
HLD	46	144	7	96
TAP	46	288	5
STR	46	288	6
SCR	46	288	6	96	288	3
HLD	47	0	5	96
HLD	47	144	4	96
TAP	47	288	5
TAP	48	0	3
TAP	48	0	4
XTP	48	48	1
TAP	48	60	3
TAP	48	72	1
TAP	48	84	3
TAP	48	144	3
TAP	48	144	4
XTP	48	192	6
TAP	48	204	4
TAP	48	216	6
TAP	48	228	4
HLD	48	288	3	48
HLD	48	288	4	48
TAP	49	0	2
TAP	49	48	1
TAP	49	48	3
TAP	49	96	5
TAP	49	144	4
TAP	49	144	6
HLD	49	192	0	48
HLD	49	192	7	48
TAP	49	288	1
TAP	49	288	6
TAP	50	0	3
TAP	50	0	4
XTP	50	48	1
TAP	50	60	2
TAP	50	72	1
TAP	50	84	2
TAP	50	144	3
TAP	50	144	4
XTP	50	192	6
TAP	50	204	5
TAP	50	216	6
TAP	50	228	5
HLD	50	288	0	48
HLD	50	288	7	48
TAP	51	0	0
TAP	51	24	7
TAP	51	48	0
TAP	51	72	7
TAP	51	96	1
TAP	51	120	6
TAP	51	144	1
TAP	51	168	6
STR	51	192	2
SI_	51	192	2	96	48	7
STR	51	192	5
SI_	51	192	5	96	48	0
STR	51	288	2
SCL	51	288	2	96	1440	4
STR	51	288	5
SCR	51	288	5	96	1152	3
HLD	56	0	3	768
THO	58	0	0	672	C	0	M1
TTP	60	0	2	E	0	M1
TTP	60	48	7	E	0	M1
TTP	60	96	1	E	0	M1
TTP	60	144	0	E	0	M1
TAP	60	144	3
TTP	60	288	6	E	0	M1
TTP	60	336	1	E	0	M1
TTP	61	0	7	E	0	M1
TTP	61	48	0	E	0	M1
TAP	61	48	4
TTP	61	192	0	C	0	M1
STR	61	192	5
SCR	61	192	5	96	48	0
TTP	62	0	2	E	0	M1
TTP	62	48	4	E	0	M1
TTP	62	96	3	E	0	M1
TAP	62	144	1
TTP	62	144	5	E	0	M1
TTP	62	288	6	E	0	M1
TTP	62	336	4	E	0	M1
TTP	63	0	5	E	0	M1
TTP	63	48	3	E	0	M1
TAP	63	48	6
TTP	63	192	0	C	0	M1
STR	63	192	1
SCR	63	192	1	96	48	4
TTP	64	0	7	E	0	M1
TTP	64	48	5	E	0	M1
TTP	64	96	6	E	0	M1
TTP	64	144	4	E	0	M1
TAP	64	144	7
TTP	64	288	1	E	0	M1
TTP	64	336	3	E	0	M1
TTP	65	0	2	E	0	M1
TAP	65	48	0
TTP	65	48	4	E	0	M1
TTP	65	192	0	C	0	M1
STR	65	192	3
SI_	65	192	3	96	48	7
TTP	66	0	7	E	0	M1
TTP	66	48	5	E	0	M1
TTP	66	96	6	E	0	M1
TTP	66	144	0	C	0	M1
TAP	66	144	3
TTP	66	288	1	E	0	M1
TTP	66	336	3	E	0	M1
TTP	67	0	2	E	0	M1
THO	67	48	0	240	C	0	M1
HLD	67	48	4	240
TAP	68	0	0
TAP	68	0	1
TAP	68	48	2
TAP	68	48	7
TAP	68	96	1
TAP	68	120	0
HLD	68	144	1	96
TAP	68	240	3
TAP	68	288	3
TAP	69	0	6
TAP	69	0	7
TAP	69	48	0
TAP	69	48	5
TAP	69	96	6
TAP	69	120	7
HLD	69	144	6	96
TAP	69	240	4
BRK	69	288	4
TAP	70	0	3
HLD	70	0	4	96
TAP	70	96	0
HLD	70	144	2	96
HLD	70	144	6	96
STR	70	288	1
SLL	70	288	1	96	192	2
STR	70	288	5
SLL	70	288	5	96	192	6
TTP	71	288	0	C	1	M1
TAP	72	0	3
TAP	72	0	4
TAP	72	48	5
TAP	72	96	4
TAP	72	96	6
TAP	72	144	5
TAP	72	192	3
TAP	72	192	4
TAP	72	240	2
TAP	72	288	1
TAP	72	288	3
TAP	72	336	2
TAP	73	0	3
TAP	73	0	4
TAP	73	48	5
TAP	73	96	6
TAP	73	96	7
TAP	73	144	5
TAP	73	192	3
TAP	73	192	4
TAP	73	240	2
TAP	73	288	0
TAP	73	288	1
TAP	73	336	2
TAP	74	0	3
TAP	74	0	5
TAP	74	48	6
TAP	74	96	2
TAP	74	96	4
TAP	74	144	1
TAP	74	192	0
TAP	74	192	7
TAP	74	240	1
TAP	74	240	6
TAP	74	288	2
TAP	74	288	5
TAP	74	336	3
TAP	74	336	4
TAP	75	0	4
TAP	75	24	3
TAP	75	48	5
TAP	75	72	2
STR	75	96	6
SUL	75	96	6	96	48	2
TAP	75	120	1
TAP	75	144	7
TAP	75	168	0
STR	75	192	6
SUR	75	192	6	96	48	2
STR	76	0	1
SUR	76	0	1	96	576	4
STR	76	0	5
SUR	76	0	5	96	576	0
TAP	78	0	3
TAP	78	24	4
TAP	78	48	3
TAP	78	72	4
TAP	78	96	3
TAP	78	120	4
TAP	78	144	3
TAP	78	168	4
TAP	78	192	2
TAP	78	216	5
TAP	78	240	3
TAP	78	264	4
TAP	78	288	2
TAP	78	312	5
TAP	78	336	3
TAP	78	360	4
TAP	79	0	2
TAP	79	24	6
TAP	79	48	1
TAP	79	72	5
TAP	79	96	3
TAP	79	144	7
TAP	79	168	2
BRK	79	192	1
BRK	79	192	5
STR	79	288	0
SUL	79	288	0	96	72	4
SLL	79	288	0	96	72	4
TAP	79	300	1
TAP	79	312	2
TAP	79	324	3
TAP	79	336	4
TAP	79	348	5
TAP	79	360	6
TAP	79	372	7
TAP	80	144	1
TAP	80	168	3
STR	80	192	1
SI_	80	192	1	96	48	6
TAP	80	240	0
TAP	80	240	2
STR	80	288	1
SUR	80	288	1	96	72	5
SLR	80	288	1	96	72	5
TAP	81	144	6
TAP	81	168	4
STR	81	192	6
SI_	81	192	6	96	48	1
TAP	81	240	5
TAP	81	240	7
TAP	81	288	6
TAP	82	0	2
TAP	82	0	3
TAP	82	48	4
TAP	82	48	5
STR	82	96	0
SI_	82	96	0	96	48	4
HLD	82	96	6	96
TAP	82	192	0
TAP	82	288	0
TAP	82	288	7
TAP	83	0	6
TAP	83	12	5
TAP	83	24	4
TAP	83	36	3
TAP	83	96	1
TAP	83	108	2
TAP	83	120	3
TAP	83	132	4
TAP	83	192	7
TAP	83	204	0
TAP	83	216	1
TAP	83	228	2
STR	83	288	0
SUR	83	288	0	96	72	4
SLR	83	288	0	96	72	4
TAP	83	300	7
TAP	83	312	6
TAP	83	324	5
TAP	84	144	6
TAP	84	168	4
STR	84	192	6
SI_	84	192	6	96	48	1
TAP	84	240	5
TAP	84	240	7
STR	84	288	6
SUL	84	288	6	96	72	2
SLL	84	288	6	96	72	2
TAP	85	144	1
TAP	85	168	3
STR	85	192	1
SI_	85	192	1	96	48	5
TAP	85	240	0
TAP	85	240	2
TAP	85	288	1
HLD	86	0	6	240
TAP	86	48	4
TAP	86	60	3
TAP	86	72	2
TAP	86	84	1
TAP	86	144	3
TAP	86	156	2
TAP	86	168	1
TAP	86	180	0
TAP	86	240	2
TAP	86	252	1
TAP	86	264	0
TAP	86	276	7
TAP	86	336	6
TAP	86	348	5
TAP	86	348	7
TAP	86	360	0
TAP	86	360	4
TAP	86	372	1
TAP	86	372	3
HLD	87	0	2	144
TAP	87	144	7
BRK	87	192	1
BRK	87	192	5
TAP	87	288	6
TAP	87	300	5
TAP	87	312	4
TAP	87	324	3
TAP	87	336	2
TAP	87	348	1
TAP	87	360	0
TAP	87	372	7
HLD	88	0	2	192
HLD	88	0	6	192
TTP	88	288	0	C	1	M1
BST	88	288	7
SUL	88	288	7	96	72	3
SLL	88	288	7	96	72	3
TAP	89	144	1
TAP	89	168	3
STR	89	192	1
SI_	89	192	1	96	48	5
TAP	89	240	0
TAP	89	240	2
TAP	89	288	1
TAP	90	0	4
TAP	90	0	6
TAP	90	48	0
TAP	90	48	7
HLD	90	96	1	96
STR	90	96	3
SI_	90	96	3	96	48	7
TAP	90	192	3
TAP	90	288	4
TAP	90	288	6
TAP	91	0	1
TAP	91	12	2
TAP	91	24	3
TAP	91	36	4
TAP	91	96	0
TAP	91	108	1
TAP	91	120	2
TAP	91	132	3
TAP	91	192	6
TAP	91	204	5
TAP	91	216	4
TAP	91	228	3
STR	91	288	7
SUR	91	288	7	96	72	3
SLR	91	288	7	96	72	3
TAP	91	300	6
TAP	91	312	5
TAP	91	324	4
TAP	92	144	6
TAP	92	168	4
STR	92	192	6
SI_	92	192	6	96	48	1
TAP	92	240	5
TAP	92	240	7
STR	92	288	6
SUL	92	288	6	96	72	2
SLL	92	288	6	96	72	2
TAP	93	144	6
TAP	93	168	4
STR	93	192	6
SI_	93	192	6	96	48	1
TAP	93	240	5
TAP	93	240	7
TAP	93	288	6
HLD	94	0	0	240
TAP	94	48	1
TAP	94	60	2
TAP	94	72	3
TAP	94	84	4
TAP	94	144	2
TAP	94	156	3
TAP	94	168	4
TAP	94	180	5
TAP	94	240	3
TAP	94	252	4
TAP	94	264	5
TAP	94	276	6
TAP	94	288	7
TAP	94	300	0
TAP	94	312	1
TAP	94	324	2
TAP	94	336	3
TAP	94	348	4
TAP	94	360	5
TAP	94	372	6
HLD	95	0	7	192
TAP	95	96	2
TAP	95	192	1
BRK	95	288	0
BRK	95	288	6
TAP	96	0	5
TAP	96	24	4
TAP	96	48	5
TAP	96	72	4
TAP	96	96	5
TAP	96	144	2
TAP	96	168	3
TAP	96	192	2
TAP	96	216	3
TAP	96	240	2
TAP	96	288	0
TAP	96	288	1
TAP	96	336	6
TAP	96	336	7
TAP	97	0	5
TAP	97	24	4
TAP	97	48	5
TAP	97	72	4
TAP	97	96	6
TAP	97	144	2
TAP	97	168	3
TAP	97	192	2
TAP	97	216	3
TAP	97	240	1
TAP	97	288	0
TAP	97	288	2
TAP	97	336	5
TAP	97	336	7
TAP	98	0	3
TAP	98	24	4
TAP	98	48	3
TAP	98	72	4
TAP	98	96	2
TAP	98	120	5
TAP	98	144	1
TAP	98	168	6
TAP	98	192	0
TAP	98	216	7
TAP	98	240	1
TAP	98	264	6
TAP	98	288	0
TAP	98	312	7
TAP	98	336	1
TAP	98	360	6
TAP	99	0	0
TAP	99	24	5
TAP	99	48	0
TAP	99	72	4
TAP	99	96	0
TAP	99	120	3
TAP	99	144	0
TAP	99	168	2
TAP	99	192	0
TAP	99	204	1
TAP	99	216	2
TAP	99	228	3
TAP	99	240	4
TAP	99	252	5
TAP	99	264	6
TAP	99	276	7
BRK	99	288	0
BRK	99	288	4
TAP	100	0	5
TAP	100	24	4
TAP	100	48	5
TAP	100	72	4
TAP	100	96	6
TAP	100	144	2
TAP	100	168	3
TAP	100	192	2
TAP	100	216	3
TAP	100	240	1
TAP	100	288	0
TAP	100	288	7
TAP	100	336	4
TAP	100	336	6
TAP	101	0	5
TAP	101	24	4
TAP	101	48	6
TAP	101	72	4
TAP	101	96	5
TAP	101	144	2
TAP	101	168	3
TAP	101	192	1
TAP	101	216	3
TAP	101	240	2
TAP	101	288	0
TAP	101	288	7
TAP	101	336	1
TAP	101	336	3
TAP	102	0	4
TAP	102	0	6
TAP	102	48	4
TAP	102	48	6
TAP	102	96	1
TAP	102	96	3
TAP	102	144	1
TAP	102	144	3
TAP	102	192	6
TAP	102	192	7
TAP	102	240	6
TAP	102	240	7
TAP	102	288	0
TAP	102	288	1
TAP	102	336	0
TAP	102	336	1
TAP	103	0	6
TAP	103	12	5
TAP	103	24	4
TAP	103	36	3
TAP	103	48	2
TAP	103	60	1
TAP	103	72	0
TAP	103	84	7
TAP	103	96	6
TAP	103	108	5
TAP	103	120	4
TAP	103	132	3
TAP	103	144	2
TAP	103	156	1
TAP	103	168	0
TAP	103	180	7
BRK	103	192	2
BRK	103	192	6
TTP	103	288	0	C	1	M1
TAP	104	0	0
TAP	104	0	7
XTP	104	48	2
TAP	104	60	3
TAP	104	72	2
TAP	104	84	3
TAP	104	144	0
TAP	104	144	7
XTP	104	192	5
TAP	104	204	4
TAP	104	216	5
TAP	104	228	4
STR	104	288	0
SI_	104	288	0	96	48	4
TAP	104	288	7
TAP	105	0	0
STR	105	0	6
SI_	105	0	6	96	48	3
STR	105	96	1
SI_	105	96	1	96	48	5
TAP	105	96	6
TAP	105	192	1
BRK	105	288	3
BRK	105	288	7
TAP	106	0	0
TAP	106	0	7
XTP	106	48	1
TAP	106	60	3
TAP	106	72	1
TAP	106	84	3
TAP	106	144	0
TAP	106	144	7
XST	106	192	6
SUL	106	192	6	96	48	1
TAP	106	204	4
TAP	106	216	6
TAP	106	228	4
TAP	107	0	2
TAP	107	48	1
TAP	107	48	3
TAP	107	96	5
TAP	107	144	4
TAP	107	144	6
TAP	107	192	0
TAP	107	192	7
TTP	107	288	0	C	1	M1
TAP	108	0	3
TAP	108	0	4
XTP	108	48	1
TAP	108	60	2
TAP	108	72	1
TAP	108	84	2
TAP	108	144	0
TAP	108	144	7
XTP	108	192	6
TAP	108	204	5
TAP	108	216	6
TAP	108	228	5
TAP	108	288	3
TAP	108	288	4
TAP	108	336	2
TAP	108	336	5
TAP	109	0	1
TAP	109	48	2
TAP	109	48	3
TAP	109	96	6
TAP	109	144	4
TAP	109	144	5
STR	109	192	0
SI_	109	192	0	96	48	3
STR	109	192	7
SI_	109	192	7	96	48	4
TAP	109	288	0
TAP	109	288	7
TAP	110	0	2
TAP	110	0	5
XTP	110	48	1
TAP	110	60	4
TAP	110	72	1
TAP	110	84	4
TAP	110	144	0
TAP	110	144	7
XTP	110	192	6
TAP	110	204	3
TAP	110	216	6
TAP	110	228	3
TAP	110	288	0
TAP	110	288	7
TAP	110	336	1
TAP	110	336	6
TAP	111	0	3
TAP	111	0	4
XTP	111	48	1
TAP	111	60	2
TAP	111	72	1
TAP	111	84	3
TAP	111	144	3
TAP	111	144	4
XTP	111	192	6
TAP	111	204	5
TAP	111	216	6
TAP	111	228	4
TAP	111	288	0
TAP	111	288	7
STR	112	0	3
SCL	112	0	3	96	960	4
STR	112	0	4
SCR	112	0	4	96	1248	3
TTP	116	0	2	B	0	M1
TTP	117	0	6	E	0	M1
TTP	118	0	3	E	0	M1
TTP	119	0	7	B	0	M1
TTP	120	0	6	E	0	M1
TTP	120	48	0	E	0	M1
TTP	120	96	7	E	0	M1
TTP	120	144	1	E	0	M1
TTP	120	288	2	E	0	M1
TTP	120	336	0	E	0	M1
TTP	121	0	1	E	0	M1
TTP	121	48	7	E	0	M1
TTP	122	0	2	E	0	M1
TTP	122	48	4	E	0	M1
TTP	122	96	3	E	0	M1
TTP	122	144	5	E	0	M1
TTP	122	288	6	E	0	M1
TTP	122	336	4	E	0	M1
TTP	123	0	5	E	0	M1
TTP	123	48	3	E	0	M1

T_REC_TAP	575
T_REC_BRK	18
T_REC_XTP	16
T_REC_HLD	58
T_REC_XHO	0
T_REC_STR	65
T_REC_BST	1
T_REC_XST	4
T_REC_TTP	126
T_REC_THO	3
T_REC_SLD	78
T_REC_ALL	944
T_NUM_TAP	786
T_NUM_BRK	19
T_NUM_HLD	61
T_NUM_SLD	78
T_NUM_ALL	944
T_JUDGE_TAP	805
T_JUDGE_HLD	147
T_JUDGE_SLD	78
T_JUDGE_ALL	1030
TTM_EACHPAIRS	141
TTM_SCR_TAP	393000
TTM_SCR_BRK	49400
TTM_SCR_HLD	61000
TTM_SCR_SLD	117000
TTM_SCR_ALL	620400
TTM_SCR_S	599950
TTM_SCR_SS	618500
TTM_RAT_ACV	10030

