VERSION	0.00.00	1.03.00
FES_MODE	0
BPM_DEF	190.000	190.000	190.000	190.000
MET_DEF	4	4
RESOLUTION	384
CLK_DEF	384
COMPATIBLE_CODE	MA2

BPM	0	0	190.000
MET	0	0	4	4

STR	4	0	3
SXR	4	0	3	96	480	6
STR	6	0	7
SXR	6	0	7	96	480	2
STR	8	0	0
SXL	8	0	0	96	480	5
HLD	10	0	4	576
TAP	10	192	3
HLD	11	0	3	192
TAP	11	288	3
TAP	11	288	4
XHO	12	0	4	96
XHO	12	0	5	96
TAP	12	144	4
TAP	12	144	5
TAP	12	240	6
TAP	12	288	6
XHO	13	0	2	96
XHO	13	0	3	96
TAP	13	144	2
TAP	13	144	3
TAP	13	240	1
TAP	13	288	1
XHO	14	0	3	96
XHO	14	0	5	96
TAP	14	144	3
TAP	14	144	5
TAP	14	240	6
STR	14	288	6
SCL	14	288	6	96	144	3
TAP	15	288	2
TAP	15	288	4
TAP	16	0	1
TAP	16	96	2
TAP	16	192	3
TAP	16	192	4
TAP	16	288	4
TAP	16	288	5
TAP	17	0	6
TAP	17	96	5
TAP	17	192	3
TAP	17	192	4
TAP	17	288	2
TAP	17	288	3
TAP	18	0	1
TAP	18	48	1
TAP	18	96	1
TAP	18	192	6
TAP	18	240	6
TAP	18	288	6
STR	19	0	0
SI_	19	0	0	96	48	4
XTP	19	192	3
XTP	19	192	5
TAP	20	0	1
HLD	20	48	1	144
TAP	20	144	3
HLD	20	192	3	144
TAP	20	288	2
TAP	20	336	2
TAP	21	48	2
TAP	21	48	3
TAP	21	144	4
XTP	21	240	3
XTP	21	240	5
TAP	22	0	6
HLD	22	48	6	144
TAP	22	144	4
HLD	22	192	4	144
TAP	22	288	5
TAP	22	336	5
TAP	23	48	4
TAP	23	48	5
TAP	23	144	3
TAP	23	240	2
TAP	23	240	4
TAP	24	0	1
HLD	24	48	1	96
TAP	24	144	3
HLD	24	192	3	144
TAP	24	288	2
TAP	24	336	2
TAP	25	48	2
TAP	25	48	3
TAP	25	144	3
TAP	25	144	4
XTP	25	240	1
XTP	25	240	6
XTP	26	0	5
HLD	26	48	5	144
TAP	26	144	4
HLD	26	192	4	144
TAP	26	288	6
TAP	26	336	6
TAP	27	48	7
TAP	27	144	0
TAP	27	144	6
XTP	27	192	0
XTP	27	192	6
TAP	28	0	2
HLD	28	48	2	144
TAP	28	144	3
HLD	28	192	3	144
TAP	28	288	2
TAP	28	336	2
TAP	29	48	1
TAP	29	48	4
TAP	29	144	2
TAP	29	144	3
XTP	29	240	3
XTP	29	240	6
TAP	29	288	3
TAP	29	288	6
TAP	30	0	5
HLD	30	48	5	144
TAP	30	144	4
HLD	30	192	4	144
TAP	30	288	5
TAP	30	336	5
TAP	31	48	6
TAP	31	144	7
TAP	31	240	6
TAP	31	288	4
TAP	31	288	6
TAP	32	0	5
HLD	32	48	5	96
TAP	32	144	2
HLD	32	192	2	144
TAP	32	288	3
TAP	32	336	3
TAP	33	48	1
TAP	33	48	4
TAP	33	144	0
XTP	33	240	1
XTP	33	240	7
TAP	33	288	1
TAP	33	288	7
TAP	34	0	2
HLD	34	48	2	96
TAP	34	144	5
HLD	34	192	5	144
TAP	34	288	4
TAP	34	336	4
XTP	35	48	0
XTP	35	48	7
XTP	35	144	1
XTP	35	144	6
BRK	35	192	1
BRK	35	192	6
TAP	36	0	4
TAP	36	0	5
TAP	36	96	4
TAP	36	96	6
TAP	36	144	4
HLD	36	144	6	144
TAP	36	240	7
TAP	36	288	7
TAP	37	0	6
TAP	37	0	7
TAP	37	96	4
TAP	37	96	5
TAP	37	192	2
TAP	37	192	3
HLD	37	288	1	480
TAP	37	288	4
THO	38	0	0	576	C	0	M1
XTP	39	192	1
XTP	40	0	2
XTP	40	0	3
TAP	40	96	1
TAP	40	96	3
HLD	40	144	1	144
TAP	40	144	3
TAP	40	240	0
TAP	40	288	0
TAP	41	0	0
TAP	41	0	1
TAP	41	96	2
TAP	41	96	3
TAP	41	192	4
TAP	41	192	5
TAP	41	288	3
HLD	41	288	6	480
THO	42	0	0	576	C	0	M1
XTP	43	192	6
XTP	44	0	6
XTP	44	0	7
TAP	44	96	0
TAP	44	96	5
TAP	44	144	0
HLD	44	144	5	144
TAP	44	240	4
TAP	44	288	4
TAP	45	0	4
TAP	45	0	5
TAP	45	96	6
TAP	45	96	7
TAP	45	192	0
TAP	45	192	1
HLD	45	288	2	480
TAP	45	288	7
THO	46	0	0	576	C	0	M1
XTP	47	192	0
STR	48	0	6
SI_	48	0	6	96	96	3
STR	48	192	1
SI_	48	192	1	96	96	4
TAP	49	0	5
TAP	49	96	6
TAP	49	96	7
TAP	49	192	0
TAP	49	288	1
TAP	49	288	7
STR	50	0	2
SI_	50	0	2	96	96	5
STR	50	192	6
SI_	50	192	6	96	96	1
TAP	51	0	2
TAP	51	96	3
TAP	51	192	2
TAP	51	192	4
TAP	51	288	3
TAP	51	288	5
THO	52	0	0	1536	C	0	M1
TTP	52	0	2	B	0	M1
TTP	52	0	6	B	0	M1
STR	56	0	0
SCR	56	0	0	96	480	5
THO	58	0	0	384	C	0	M1
TTP	60	0	2	B	0	M1
TTP	60	96	1	B	0	M1
TTP	60	192	1	E	0	M1
TTP	60	288	0	E	0	M1
TTP	61	0	0	C	0	M1
TTP	61	96	4	E	0	M1
TTP	61	192	2	B	0	M1
TTP	61	192	3	E	0	M1
TTP	62	0	5	B	0	M1
TTP	62	96	6	B	0	M1
TTP	62	192	7	E	0	M1
TTP	62	288	0	E	0	M1
TTP	63	0	0	C	0	M1
TTP	63	96	4	E	0	M1
TTP	63	192	5	B	0	M1
TTP	63	192	5	E	0	M1
TTP	64	0	2	E	0	M1
TTP	64	96	1	B	0	M1
TTP	64	192	0	B	0	M1
TTP	64	288	7	E	0	M1
TTP	65	0	0	C	0	M1
TTP	65	96	3	E	0	M1
TTP	65	192	1	B	0	M1
TTP	65	192	2	E	0	M1
TTP	66	0	2	B	0	M1
TTP	66	96	3	B	0	M1
TTP	66	192	4	B	0	M1
TTP	66	288	5	B	0	M1
TTP	67	0	0	C	0	M1
TAP	67	192	1
TAP	67	192	6
HLD	68	0	2	96
HLD	68	144	1	96
HLD	68	144	3	96
TAP	68	288	1
TAP	68	288	3
HLD	69	0	5	96
HLD	69	144	4	96
HLD	69	144	6	96
TAP	69	288	4
TAP	69	288	6
HLD	70	0	1	96
HLD	70	144	0	96
HLD	70	144	2	96
TAP	70	288	3
STR	70	288	7
SF_	70	288	7	96	192	3
TAP	71	288	1
TAP	71	288	5
HLD	72	0	2	96
TAP	72	96	3
HLD	72	192	6	96
TAP	72	288	4
HLD	73	0	1	96
TAP	73	96	0
HLD	73	192	6	96
TAP	73	288	7
TAP	74	0	5
TAP	74	48	5
TAP	74	96	4
TAP	74	192	2
TAP	74	240	2
TAP	74	288	3
TAP	75	0	6
TAP	75	48	6
TAP	75	96	7
TAP	75	192	1
TAP	75	240	1
TAP	75	288	0
STR	76	0	7
SXL	76	0	7	96	480	2
SXR	76	0	7	96	480	4
TAP	78	0	3
TAP	78	96	2
TAP	78	144	2
TAP	78	144	3
TAP	78	240	5
TAP	78	288	4
TAP	78	288	5
TAP	79	0	6
TAP	79	0	7
TAP	79	96	0
TAP	79	96	1
XTP	79	192	2
XTP	79	192	5
BST	80	0	6
SI_	80	0	6	96	48	2
TAP	80	96	0
STR	80	144	0
SI_	80	144	0	96	48	4
TAP	80	240	7
HLD	80	288	7	96
HLD	81	0	5	96
HLD	81	96	3	96
TAP	81	192	2
TAP	81	288	1
TAP	81	288	7
TAP	82	0	0
STR	82	0	6
SCL	82	0	6	96	192	0
TTP	82	96	0	C	1	M1
TAP	83	0	6
TAP	83	0	7
TAP	83	96	6
TAP	83	96	7
TAP	83	192	4
TAP	83	192	5
TAP	83	288	2
TAP	83	288	3
BST	84	0	1
SI_	84	0	1	96	48	5
TAP	84	96	7
STR	84	144	7
SI_	84	144	7	96	48	3
TAP	84	240	0
HLD	84	288	0	96
HLD	85	0	2	96
HLD	85	96	4	96
TAP	85	192	6
TAP	85	288	0
TAP	85	288	5
TAP	86	0	2
STR	86	0	7
SI_	86	0	7	96	48	3
TAP	86	96	1
STR	86	192	0
SI_	86	192	0	96	48	4
TAP	86	192	5
TAP	86	288	6
STR	87	0	2
SI_	87	0	2	96	48	0
STR	87	0	7
SI_	87	0	7	96	48	3
XTP	87	192	1
XTP	87	192	5
TTP	88	0	0	C	1	M1
TTP	88	0	2	B	0	M1
TTP	88	0	6	B	0	M1
XTP	88	288	0
XTP	88	288	7
TAP	89	0	1
HLD	89	0	4	96
HLD	89	96	7	96
HLD	89	192	2	96
TAP	89	288	3
TAP	90	0	2
STR	90	0	4
SCR	90	0	4	96	192	2
TTP	90	96	0	C	1	M1
TAP	91	0	4
TAP	91	0	5
TAP	91	96	4
TAP	91	96	5
TAP	91	192	6
TAP	91	192	7
TAP	91	288	0
TAP	91	288	5
STR	92	0	2
SI_	92	0	2	96	48	6
TAP	92	96	4
STR	92	144	4
SI_	92	144	4	96	48	0
TAP	92	240	3
HLD	92	288	3	96
HLD	93	0	0	96
HLD	93	96	5	96
TAP	93	192	4
TAP	93	288	3
TAP	93	288	4
TAP	94	0	2
TAP	94	48	2
TAP	94	96	3
TAP	94	144	1
TAP	94	192	5
TAP	94	240	5
TAP	94	288	4
TAP	94	336	6
TTP	95	0	0	C	1	M1
XTP	95	288	1
XTP	95	288	6
STR	96	0	7
SCL	96	0	7	96	96	4
STR	96	192	0
SCR	96	192	0	96	96	3
HLD	97	0	5	384
TAP	97	96	4
TAP	97	192	6
TAP	97	288	4
STR	98	0	3
SCL	98	0	3	96	96	0
STR	98	192	4
SCR	98	192	4	96	96	7
HLD	99	0	1	288
TAP	99	96	0
TAP	99	192	2
TAP	99	288	0
STR	100	0	7
SCL	100	0	7	96	96	4
STR	100	192	3
SCL	100	192	3	96	96	0
HLD	101	0	7	96
HLD	101	96	6	96
HLD	101	192	5	96
TAP	101	288	4
TAP	102	0	2
TAP	102	48	2
TAP	102	96	3
TAP	102	144	1
TAP	102	192	5
TAP	102	240	5
TAP	102	288	4
TAP	102	336	6
TAP	103	0	0
TAP	103	24	7
TAP	103	48	0
TAP	103	72	7
TAP	103	96	0
TAP	103	120	7
TAP	103	144	0
TAP	103	168	7
BRK	103	192	0
HLD	104	0	2	96
TAP	104	0	3
HLD	104	144	1	96
HLD	104	144	3	96
TAP	104	288	1
TAP	104	288	3
TAP	105	0	4
HLD	105	0	5	96
HLD	105	144	4	96
HLD	105	144	6	96
TAP	105	288	4
TAP	105	288	6
HLD	106	0	0	96
HLD	106	0	1	96
HLD	106	144	2	96
HLD	106	144	7	96
TAP	106	288	2
TAP	106	288	7
HLD	107	0	3	96
HLD	107	0	4	96
TAP	107	144	3
TAP	107	144	4
TAP	107	240	2
TAP	107	240	5
BRK	107	288	2
BRK	107	288	5
HLD	108	0	1	96
HLD	108	0	3	96
HLD	108	144	2	96
HLD	108	144	7	96
XTP	108	288	2
XTP	108	288	7
HLD	109	0	4	96
HLD	109	0	6	96
HLD	109	144	0	96
HLD	109	144	5	96
XTP	109	288	0
XTP	109	288	5
TAP	110	0	1
TAP	110	48	1
TAP	110	96	3
TAP	110	144	3
TAP	110	192	4
TAP	110	240	4
TAP	110	288	6
TAP	110	336	6
TAP	111	0	0
TAP	111	24	7
TAP	111	48	0
TAP	111	72	7
TAP	111	96	0
TAP	111	120	7
TAP	111	144	0
TAP	111	168	7
TAP	111	192	0
STR	111	288	2
SCL	111	288	2	96	1104	5
TAP	111	288	5
TTP	112	0	0	C	1	M1
HLD	115	240	5	1680
HLD	117	240	2	2112
THO	122	0	0	432	C	0	M1

T_REC_TAP	282
T_REC_BRK	5
T_REC_XTP	36
T_REC_HLD	76
T_REC_XHO	6
T_REC_STR	29
T_REC_BST	2
T_REC_XST	0
T_REC_TTP	38
T_REC_THO	6
T_REC_SLD	32
T_REC_ALL	512
T_NUM_TAP	385
T_NUM_BRK	7
T_NUM_HLD	88
T_NUM_SLD	32
T_NUM_ALL	512
T_JUDGE_TAP	392
T_JUDGE_HLD	386
T_JUDGE_SLD	32
T_JUDGE_ALL	810
TTM_EACHPAIRS	111
TTM_SCR_TAP	192500
TTM_SCR_BRK	18200
TTM_SCR_HLD	88000
TTM_SCR_SLD	48000
TTM_SCR_ALL	346700
TTM_SCR_S	335650
TTM_SCR_SS	346000
TTM_RAT_ACV	10020

