VERSION	0.00.00	1.03.00
FES_MODE	0
BPM_DEF	190.000	190.000	190.000	190.000
MET_DEF	4	4
RESOLUTION	384
CLK_DEF	384
COMPATIBLE_CODE	MA2

BPM	0	0	190.000
MET	0	0	4	4

STR	4	0	5
SCL	4	0	5	96	480	2
STR	6	0	1
SCL	6	0	1	96	480	6
STR	8	0	5
SCL	8	0	5	96	480	2
STR	10	0	1
SCR	10	0	1	96	480	4
XHO	12	0	4	144
XHO	12	0	5	144
XHO	13	0	2	144
XHO	13	0	3	144
XHO	14	0	3	144
XHO	14	0	4	144
TAP	15	0	3
TAP	15	0	4
TAP	15	192	2
TAP	15	192	5
TAP	16	0	6
TAP	16	96	6
TAP	16	192	6
TAP	17	0	1
TAP	17	96	1
TAP	17	192	1
TAP	18	0	7
TAP	18	96	7
TAP	18	192	0
TAP	18	288	0
TAP	19	0	0
TAP	19	0	7
XTP	19	192	1
XTP	19	192	6
HLD	20	0	2	192
TAP	20	192	3
TAP	21	0	4
TAP	21	96	4
TAP	21	192	3
HLD	22	0	5	192
TAP	22	192	4
TAP	23	0	3
TAP	23	96	3
TAP	23	192	4
HLD	24	0	2	192
TAP	24	192	3
TAP	25	0	2
TAP	25	96	2
TAP	25	192	3
HLD	26	0	4	192
HLD	26	0	5	192
TAP	27	0	4
TAP	27	0	5
TAP	27	192	3
TAP	27	192	6
HLD	28	0	6	192
TAP	28	192	7
TAP	29	0	0
TAP	29	96	0
TAP	29	192	7
HLD	30	0	1	192
TAP	30	192	0
TAP	31	0	7
TAP	31	96	7
TAP	31	192	0
HLD	32	0	6	192
TAP	32	192	7
HLD	33	0	1	192
TAP	33	192	0
HLD	34	0	2	192
TAP	34	192	3
TAP	35	0	3
TAP	35	0	4
XTP	35	192	2
XTP	35	192	5
TAP	36	0	1
TAP	36	96	1
TAP	36	192	0
TAP	36	192	1
TAP	37	0	6
TAP	37	96	6
TAP	37	192	6
TAP	37	192	7
HLD	38	0	6	192
HLD	38	192	5	192
TAP	39	0	4
XTP	39	192	3
XTP	39	192	4
TAP	40	0	2
TAP	40	96	2
TAP	40	192	2
TAP	40	192	3
TAP	41	0	5
TAP	41	96	5
TAP	41	192	4
TAP	41	192	5
HLD	42	0	4	192
HLD	42	192	3	192
TAP	43	0	2
XTP	43	192	1
XTP	43	192	4
TAP	44	0	1
TAP	44	96	1
TAP	44	192	0
TAP	44	192	1
TAP	45	0	6
TAP	45	96	6
TAP	45	192	6
TAP	45	192	7
HLD	46	0	5	192
HLD	46	192	6	192
TAP	47	0	7
XTP	47	192	0
XTP	47	192	5
TAP	48	0	6
TAP	48	96	6
TAP	48	192	5
TAP	48	288	5
TAP	49	0	4
TAP	49	0	5
TAP	49	192	2
TAP	49	192	3
TAP	50	0	0
TAP	50	96	0
TAP	50	192	1
TAP	50	288	1
TAP	51	0	2
TAP	51	0	3
BRK	51	192	1
BRK	51	192	6
TTP	52	0	0	C	1	L1
THO	56	0	0	1152	C	0	L1
TTP	60	0	6	E	0	L1
TTP	60	192	5	E	0	L1
TTP	61	0	4	E	0	L1
TTP	62	0	2	E	0	L1
TTP	62	192	3	E	0	L1
TTP	63	0	4	E	0	L1
TTP	64	0	5	E	0	L1
TTP	64	192	6	E	0	L1
TTP	65	0	7	E	0	L1
TTP	66	0	3	B	0	L1
TTP	66	0	4	B	0	L1
TTP	66	192	2	B	0	L1
TTP	66	192	5	B	0	L1
TTP	67	0	1	B	0	L1
TTP	67	0	6	B	0	L1
XHO	68	0	0	144
XHO	68	0	7	144
XHO	69	0	1	144
XHO	69	0	3	144
XHO	70	0	4	144
XHO	70	0	6	144
TAP	71	0	3
TAP	71	0	4
TAP	71	96	3
TAP	71	96	4
TAP	71	192	3
TAP	71	192	4
HLD	72	0	2	192
TAP	72	96	3
TAP	72	192	3
HLD	73	0	5	192
TAP	73	96	4
TAP	73	192	4
TAP	74	0	6
TAP	74	96	6
TAP	74	192	7
TAP	74	288	7
TAP	75	0	0
TAP	75	96	0
TAP	75	192	0
TAP	75	192	7
BST	76	0	1
SLR	76	0	1	96	480	0
BST	76	0	6
SLL	76	0	6	96	480	7
THO	78	0	0	384	C	0	L1
TAP	79	192	0
TAP	79	192	7
BRK	80	0	1
TAP	80	96	1
TAP	80	192	2
TAP	80	288	3
TAP	81	0	4
TAP	81	96	5
TAP	81	192	3
TAP	81	192	6
TAP	82	0	6
TAP	82	96	6
TAP	82	192	5
TAP	82	288	4
TAP	83	0	3
TAP	83	96	2
TAP	83	192	1
TAP	83	192	4
TAP	84	0	2
TAP	84	96	2
TAP	84	192	1
TAP	84	288	0
TAP	85	0	7
TAP	85	96	6
TAP	85	192	0
TAP	85	192	5
TAP	86	0	7
TAP	86	96	7
TAP	86	192	0
TAP	86	288	0
HLD	87	0	0	96
HLD	87	0	7	96
BRK	87	192	1
BRK	87	192	6
TTP	88	0	0	C	1	L1
XTP	89	0	0
XTP	89	0	7
XTP	89	96	0
XTP	89	96	7
XTP	89	192	1
XTP	89	192	6
TAP	90	0	2
TAP	90	0	3
TAP	90	96	2
TAP	90	96	3
TAP	90	192	1
TAP	90	192	4
TAP	91	0	4
TAP	91	0	5
TAP	91	96	4
TAP	91	96	5
XTP	91	192	3
XTP	91	192	6
TAP	92	0	7
TAP	92	96	6
TAP	92	192	5
TAP	92	288	4
TAP	93	0	3
TAP	93	96	2
TAP	93	192	1
TAP	93	288	0
TAP	94	0	7
TAP	94	96	7
TAP	94	192	0
TAP	94	288	0
TAP	95	0	0
TAP	95	0	7
TAP	95	96	1
TAP	95	96	6
BRK	95	192	2
BRK	95	192	5
XHO	96	0	2	192
TAP	96	192	3
TAP	96	288	3
TAP	97	0	2
TAP	97	0	3
TAP	97	96	3
TAP	97	96	4
TAP	97	192	4
TAP	97	192	5
HLD	98	0	6	192
TAP	98	192	7
TAP	98	288	7
TAP	99	0	6
TAP	99	0	7
TAP	99	96	0
TAP	99	96	7
TAP	99	192	0
TAP	99	192	1
HLD	100	0	2	96
HLD	100	0	3	96
TAP	100	192	1
TAP	100	192	4
HLD	101	0	4	96
HLD	101	0	5	96
TAP	101	192	3
TAP	101	192	6
TAP	102	0	4
TAP	102	96	4
TAP	102	192	3
TAP	102	288	3
TAP	103	0	3
TAP	103	0	4
TAP	103	96	2
TAP	103	96	5
BRK	103	192	1
BRK	103	192	6
XHO	104	0	1	144
XHO	104	0	3	144
XHO	105	0	4	144
XHO	105	0	6	144
XHO	106	0	0	144
XHO	106	0	1	144
XHO	107	0	6	144
XHO	107	0	7	144
XTP	108	0	4
XTP	108	0	5
TAP	108	96	3
TAP	108	96	6
TAP	108	144	3
TAP	108	144	6
TAP	109	0	2
TAP	109	0	3
TAP	109	96	1
TAP	109	96	4
TAP	109	144	1
TAP	109	144	4
TAP	110	0	1
TAP	110	96	0
TAP	110	96	1
TAP	110	192	6
TAP	110	288	6
TAP	110	288	7
TAP	111	0	0
TAP	111	0	7
TAP	111	96	1
TAP	111	96	6
TAP	111	192	2
TAP	111	192	5
TAP	111	288	3
TAP	111	288	4
BRK	112	0	1
XHO	112	0	6	1104
TTP	115	240	2	B	0	L1
TTP	115	240	3	E	0	L1
TTP	116	240	5	B	0	L1
TTP	116	240	5	E	0	L1
TTP	117	240	3	B	0	L1
TTP	117	240	4	B	0	L1
THO	118	192	0	576	C	0	L1

T_REC_TAP	211
T_REC_BRK	10
T_REC_XTP	20
T_REC_HLD	25
T_REC_XHO	22
T_REC_STR	4
T_REC_BST	2
T_REC_XST	0
T_REC_TTP	23
T_REC_THO	3
T_REC_SLD	6
T_REC_ALL	326
T_NUM_TAP	258
T_NUM_BRK	12
T_NUM_HLD	50
T_NUM_SLD	6
T_NUM_ALL	326
T_JUDGE_TAP	270
T_JUDGE_HLD	219
T_JUDGE_SLD	6
T_JUDGE_ALL	495
TTM_EACHPAIRS	81
TTM_SCR_TAP	129000
TTM_SCR_BRK	31200
TTM_SCR_HLD	50000
TTM_SCR_SLD	9000
TTM_SCR_ALL	219200
TTM_SCR_S	211500
TTM_SCR_SS	218000
TTM_RAT_ACV	10055

