VERSION	0.00.00	1.03.00
FES_MODE	0
BPM_DEF	190.000	190.000	190.000	190.000
MET_DEF	4	4
RESOLUTION	384
CLK_DEF	384
COMPATIBLE_CODE	MA2

BPM	0	0	190.000
MET	0	0	4	4

HLD	4	0	3	384
HLD	6	0	3	384
HLD	8	0	4	384
HLD	10	0	4	384
TAP	12	0	2
TAP	12	0	3
TAP	13	0	2
TAP	13	0	3
TAP	14	0	2
TAP	14	0	3
TAP	15	0	4
TAP	15	192	4
TAP	16	0	4
TAP	16	0	5
TAP	17	0	4
TAP	17	0	5
TAP	18	0	4
TAP	18	0	5
TAP	19	0	3
BRK	19	192	3
TAP	20	0	2
TAP	20	192	2
TAP	21	0	1
TAP	21	192	1
TAP	22	0	0
TAP	22	192	0
TAP	23	0	0
TAP	23	0	7
TAP	24	0	6
TAP	24	192	6
TAP	25	0	5
TAP	25	192	5
TAP	26	0	4
TAP	26	192	4
XTP	27	0	3
XTP	27	0	4
TAP	28	0	5
TAP	28	192	5
TAP	29	0	6
TAP	29	192	6
TAP	30	0	7
TAP	30	192	7
TAP	31	0	0
TAP	31	0	7
TAP	32	0	1
TAP	32	192	1
TAP	33	0	2
TAP	33	192	2
TAP	34	0	3
TAP	34	192	3
BRK	35	0	3
BRK	35	0	4
TAP	36	0	3
TAP	36	192	3
TAP	37	0	4
TAP	37	96	4
TAP	37	192	4
HLD	38	0	2	384
HLD	38	0	3	384
TAP	40	0	4
TAP	40	192	4
TAP	41	0	3
TAP	41	96	3
TAP	41	192	3
HLD	42	0	4	384
HLD	42	0	5	384
TAP	44	0	2
TAP	44	0	3
TAP	44	192	2
TAP	44	192	3
TAP	45	0	5
TAP	45	96	4
TAP	45	192	5
HLD	46	0	2	384
HLD	46	0	4	384
TAP	48	0	4
TAP	48	0	5
TAP	48	192	4
TAP	48	192	5
TAP	49	0	2
TAP	49	96	3
TAP	49	192	2
TAP	50	0	2
TAP	50	0	3
TAP	50	192	2
TAP	50	192	3
TAP	51	0	5
TAP	51	96	4
TAP	51	192	5
TTP	52	0	6	B	0	L1
TTP	53	0	5	B	0	L1
TTP	54	0	4	B	0	L1
TTP	55	0	3	B	0	L1
TTP	56	0	2	B	0	L1
TTP	57	0	1	B	0	L1
THO	58	0	0	384	C	0	L1
TAP	60	0	7
TAP	61	0	7
TAP	62	0	0
TAP	62	0	6
TAP	64	0	0
TAP	65	0	0
HLD	66	0	1	576
HLD	66	0	7	576
TAP	68	0	6
TAP	68	0	7
TAP	69	0	0
TAP	69	0	1
TAP	70	0	6
TAP	70	0	7
TAP	71	0	7
TAP	71	192	7
TAP	72	0	0
TAP	72	96	0
TAP	72	192	0
TAP	73	0	7
TAP	73	96	7
TAP	73	192	7
TAP	74	0	0
TAP	74	96	0
TAP	74	192	7
TAP	74	288	7
TAP	75	0	0
TAP	75	96	7
XTP	75	192	0
STR	76	0	7
SI_	76	0	7	96	288	3
TAP	78	0	3
TAP	78	96	3
TAP	78	192	4
TAP	78	288	4
TAP	79	0	3
TAP	79	96	4
BRK	79	192	3
BRK	79	192	4
TAP	80	0	5
TAP	80	96	5
TAP	80	192	5
TAP	81	0	6
TAP	81	96	6
TAP	81	192	6
STR	82	0	7
SI_	82	0	7	96	288	3
TAP	84	0	2
TAP	84	96	2
TAP	84	192	2
TAP	85	0	3
TAP	85	96	3
TAP	85	192	3
TAP	86	0	4
TAP	86	0	5
TAP	86	192	2
TAP	86	192	3
TAP	87	0	4
TAP	87	96	4
BRK	87	192	3
BRK	87	192	4
TAP	88	0	2
TAP	88	96	2
TAP	88	192	2
TAP	89	0	1
TAP	89	96	1
TAP	89	192	1
STR	90	0	0
SI_	90	0	0	96	288	4
TAP	92	0	5
TAP	92	96	5
TAP	92	192	5
TAP	93	0	4
TAP	93	96	4
TAP	93	192	4
TAP	94	0	2
TAP	94	0	3
TAP	94	192	4
TAP	94	192	5
TAP	95	0	3
TAP	95	96	3
TAP	95	192	4
TAP	95	288	4
STR	96	0	3
SI_	96	0	3	96	288	0
STR	98	0	4
SI_	98	0	4	96	288	7
TAP	100	0	0
TAP	100	192	0
TAP	101	0	1
TAP	101	192	1
TAP	102	0	2
TAP	102	96	2
TAP	102	192	3
TAP	102	288	3
TAP	103	0	4
TAP	103	96	4
TAP	103	192	4
TAP	103	192	5
HLD	104	0	6	192
HLD	104	0	7	192
HLD	105	0	0	192
HLD	105	0	1	192
HLD	106	0	6	192
HLD	106	0	7	192
TAP	107	0	0
TAP	107	96	0
BRK	107	192	0
TAP	108	0	1
TAP	108	192	1
TAP	109	0	2
TAP	109	96	2
TAP	109	192	2
TAP	109	192	3
TAP	110	0	3
TAP	110	96	3
TAP	110	192	4
TAP	110	288	4
TAP	111	0	3
TAP	111	96	4
TAP	111	192	3
TAP	111	288	4
BRK	112	0	3
BRK	112	0	4
TAP	113	0	4
TAP	114	0	5
TAP	115	0	5
TAP	116	0	6
TAP	117	0	6
TAP	118	0	7
TAP	118	192	7
STR	119	0	7
SI_	119	0	7	96	288	3

T_REC_TAP	179
T_REC_BRK	10
T_REC_XTP	3
T_REC_HLD	18
T_REC_XHO	0
T_REC_STR	6
T_REC_BST	0
T_REC_XST	0
T_REC_TTP	6
T_REC_THO	1
T_REC_SLD	6
T_REC_ALL	229
T_NUM_TAP	194
T_NUM_BRK	10
T_NUM_HLD	19
T_NUM_SLD	6
T_NUM_ALL	229
T_JUDGE_TAP	204
T_JUDGE_HLD	136
T_JUDGE_SLD	6
T_JUDGE_ALL	346
TTM_EACHPAIRS	36
TTM_SCR_TAP	97000
TTM_SCR_BRK	26000
TTM_SCR_HLD	19000
TTM_SCR_SLD	9000
TTM_SCR_ALL	151000
TTM_SCR_S	145500
TTM_SCR_SS	150000
TTM_RAT_ACV	10066

