VERSION	0.00.00	1.03.00
FES_MODE	0
BPM_DEF	150.000	150.000	150.000	150.000
MET_DEF	4	4
RESOLUTION	384
CLK_DEF	384
COMPATIBLE_CODE	MA2

BPM	0	0	150.000
MET	0	0	4	4

XTP	2	0	3
XST	2	0	4
SCR	2	0	4	96	1344	3
TTP	2	288	4	E	0	M1
TTP	2	336	3	E	0	M1
TTP	3	288	0	E	0	M1
TTP	3	336	1	E	0	M1
TTP	4	288	6	E	0	M1
TTP	4	336	5	E	0	M1
TTP	5	288	0	C	0	M1
HLD	6	0	5	48
HLD	6	96	5	48
HLD	6	192	5	48
TAP	6	288	2
HLD	6	288	5	48
TAP	6	336	3
HLD	7	0	5	48
HLD	7	96	5	48
HLD	7	192	5	48
TAP	7	288	4
HLD	7	288	5	48
TAP	7	336	3
HLD	8	0	5	48
HLD	8	96	5	48
HLD	8	192	5	48
TAP	8	288	1
HLD	8	288	5	48
TAP	8	336	2
STR	9	0	5
SF_	9	0	5	96	192	1
BRK	10	0	3
BRK	10	0	7
TTP	10	288	2	E	0	M1
TTP	11	0	3	B	0	M1
TTP	11	144	0	E	0	M1
TTP	11	288	5	E	0	M1
THO	12	0	0	384	C	0	M1
TAP	14	0	3
TAP	14	48	3
TAP	14	96	3
TAP	14	120	4
TAP	14	168	4
TAP	14	192	3
TAP	14	240	3
TAP	14	288	3
TAP	14	288	4
TAP	15	0	5
TAP	15	48	5
TAP	15	96	5
TAP	15	120	4
TAP	15	168	4
TAP	15	192	5
TAP	15	240	5
TAP	15	288	4
TAP	15	288	5
TAP	16	0	2
TAP	16	48	2
TAP	16	96	2
TAP	16	120	3
TAP	16	168	3
TAP	16	192	2
TAP	16	240	2
TAP	16	288	2
TAP	16	288	3
TAP	17	0	0
STR	17	0	4
SXL	17	0	4	96	192	0
SXR	17	0	4	96	192	0
XHO	18	0	2	96
BRK	18	0	6
TAP	18	96	3
HLD	18	144	3	96
HLD	18	240	7	96
HLD	18	336	6	96
HLD	19	48	5	96
TAP	19	144	4
TAP	19	192	4
TAP	19	240	3
TAP	19	288	4
HLD	19	336	5	96
HLD	20	48	6	96
HLD	20	144	7	96
HLD	20	240	0	96
STR	20	336	1
SXL	20	336	1	96	240	6
HLD	21	48	2	240
TAP	22	0	4
TAP	22	48	5
TAP	22	96	4
TAP	22	96	6
TAP	22	144	3
TAP	22	192	5
TAP	22	240	4
TAP	22	288	3
TAP	22	288	6
TAP	22	336	5
TAP	23	0	3
TAP	23	48	4
TAP	23	96	2
TAP	23	96	5
TAP	23	144	3
TAP	23	192	4
TAP	23	240	2
TAP	23	288	1
TAP	23	288	3
TAP	23	336	4
TAP	24	0	3
TAP	24	48	4
TAP	24	96	2
TAP	24	96	5
TAP	24	144	4
TAP	24	192	3
TAP	24	240	5
TAP	24	288	4
TAP	24	288	6
TAP	24	336	3
TAP	25	0	2
TAP	25	48	3
TAP	25	96	1
TAP	25	96	4
TAP	25	144	2
TAP	25	192	3
TAP	25	240	4
XTP	25	288	3
XTP	25	312	3
XTP	25	336	3
XTP	25	360	3
BRK	26	0	3
TAP	26	48	2
TAP	26	96	1
TAP	26	96	3
TAP	26	144	2
TAP	26	168	3
TAP	26	216	4
TAP	26	240	3
TAP	26	288	2
TAP	26	312	2
TAP	26	336	4
TAP	26	360	4
TAP	27	0	3
TAP	27	48	5
TAP	27	96	4
TAP	27	96	6
TAP	27	144	5
TAP	27	168	4
TAP	27	216	3
TAP	27	240	4
TAP	27	288	3
TAP	27	288	5
TAP	27	336	2
TAP	27	336	4
TAP	28	0	3
TAP	28	48	2
TAP	28	96	1
TAP	28	96	3
TAP	28	144	2
TAP	28	168	3
TAP	28	216	4
TAP	28	240	3
STR	28	288	2
SLL	28	288	2	96	96	5
SLR	28	288	2	96	96	7
TAP	28	312	2
TAP	28	336	3
TAP	28	360	3
XHO	29	192	3	48
XHO	29	192	6	48
XHO	29	264	1	48
XHO	29	264	4	48
BRK	29	336	2
BRK	29	336	5
XTP	30	0	4
TAP	30	48	5
TAP	30	96	4
TAP	30	96	6
TAP	30	144	5
TAP	30	168	4
TAP	30	216	3
TAP	30	240	4
TAP	30	288	5
TAP	30	312	5
TAP	30	336	3
TAP	30	360	3
TAP	31	0	4
TAP	31	48	2
TAP	31	96	1
TAP	31	96	3
TAP	31	144	2
TAP	31	168	3
TAP	31	216	4
TAP	31	240	3
TAP	31	288	2
TAP	31	288	4
TAP	31	336	3
TAP	31	336	5
TAP	32	0	4
TAP	32	48	5
TAP	32	96	4
TAP	32	96	6
TAP	32	144	5
TAP	32	168	4
TAP	32	216	3
TAP	32	240	4
TAP	32	288	5
TAP	32	312	5
TAP	32	336	4
TAP	32	360	4
TTP	33	0	7	E	0	M1
TTP	33	24	0	B	0	M1
TTP	33	48	4	B	0	M1
TTP	33	72	3	E	0	M1
TTP	33	96	5	E	0	M1
TTP	33	120	3	B	0	M1
TTP	33	144	7	B	0	M1
TTP	33	168	1	E	0	M1
STR	33	192	6
SSL	33	192	6	96	96	2
XHO	34	0	1	72
HLD	34	96	1	48
HLD	34	96	3	48
HLD	34	168	4	48
HLD	34	168	5	48
HLD	34	240	1	48
HLD	34	240	2	48
HLD	34	312	6	48
HLD	34	312	7	48
TAP	35	0	7
TAP	35	48	4
TAP	35	96	3
TAP	35	120	3
TAP	35	168	5
TAP	35	192	3
TAP	35	216	4
TAP	35	240	2
TAP	35	288	2
TAP	35	288	3
TAP	35	336	3
TAP	35	336	4
XTP	36	0	4
XHO	36	0	5	72
HLD	36	96	5	48
HLD	36	96	7	48
HLD	36	168	2	48
HLD	36	168	3	48
HLD	36	240	5	48
HLD	36	240	6	48
HLD	36	312	0	48
HLD	36	312	2	48
TAP	37	0	2
TAP	37	48	4
TAP	37	72	4
TAP	37	120	3
TAP	37	144	3
TAP	37	192	5
TAP	37	216	5
TAP	37	264	2
TAP	37	288	2
BRK	37	336	1
BRK	37	336	3
XHO	38	0	4	72
XHO	38	0	6	72
HLD	38	96	4	48
HLD	38	96	6	48
HLD	38	168	0	48
HLD	38	168	1	48
HLD	38	240	5	48
HLD	38	240	6	48
HLD	38	312	1	48
HLD	38	312	3	48
TAP	39	0	0
TAP	39	24	0
TAP	39	48	4
TAP	39	72	0
TAP	39	96	0
TAP	39	120	4
TAP	39	144	0
TAP	39	168	0
TAP	39	192	4
TAP	39	216	0
TAP	39	240	0
TAP	39	264	4
BRK	39	288	0
XTP	40	0	3
XTP	40	0	7
TTP	40	96	7	E	0	M1
TTP	40	120	6	B	0	M1
TTP	40	144	5	B	0	M1
TTP	40	168	5	E	0	M1
TTP	40	192	3	E	0	M1
TTP	40	216	2	B	0	M1
TTP	40	240	1	B	0	M1
TTP	40	264	1	E	0	M1
TTP	40	288	4	E	0	M1
TTP	40	312	4	B	0	M1
TTP	40	336	5	B	0	M1
TTP	40	360	6	E	0	M1
TTP	41	0	0	E	0	M1
TTP	41	24	1	E	0	M1
TTP	41	48	2	E	0	M1
TTP	41	72	3	E	0	M1
TTP	41	96	4	E	0	M1
TTP	41	120	5	E	0	M1
TTP	41	144	6	E	0	M1
TTP	41	168	7	E	0	M1
THO	41	192	0	48	C	1	M1
XHO	42	0	2	96
XHO	42	0	6	48
HLD	42	96	6	48
HLD	42	144	4	96
HLD	42	192	6	48
HLD	42	288	0	0
HLD	42	288	6	48
XHO	43	0	1	48
XHO	43	0	5	96
HLD	43	96	1	48
HLD	43	144	3	96
HLD	43	192	1	48
HLD	43	288	1	48
HLD	43	288	7	0
XHO	44	0	2	96
XHO	44	0	7	48
HLD	44	96	7	48
HLD	44	144	4	96
HLD	44	192	7	48
HLD	44	288	1	0
HLD	44	288	7	48
XHO	45	0	0	48
XHO	45	0	5	96
HLD	45	96	0	48
HLD	45	144	3	96
HLD	45	192	0	48
HLD	45	288	0	48
HLD	45	288	6	0
XTP	46	0	2
XTP	46	0	5
TAP	46	48	5
TAP	46	96	4
TAP	46	96	5
TAP	46	144	5
TAP	46	192	5
TAP	46	192	6
TAP	46	240	5
TAP	46	288	0
TAP	46	288	5
TAP	46	336	5
XTP	47	0	2
XTP	47	0	5
TAP	47	48	2
TAP	47	96	2
TAP	47	96	3
TAP	47	144	2
TAP	47	192	1
TAP	47	192	2
TAP	47	240	2
TAP	47	288	2
TAP	47	288	7
TAP	47	336	2
TAP	48	0	4
TAP	48	24	3
TAP	48	48	4
TAP	48	72	3
XTP	48	96	4
TAP	48	108	5
TAP	48	120	6
TAP	48	132	7
TAP	48	144	0
TAP	48	156	1
TAP	48	168	2
TAP	48	180	3
XTP	48	192	1
XTP	48	192	4
XTP	48	264	3
XTP	48	264	6
XTP	48	336	0
XTP	48	336	7
THO	49	0	0	288	C	1	M1
TTP	49	0	1	B	0	M1
TTP	49	0	2	B	0	M1
TTP	49	0	5	B	0	M1
TTP	49	0	6	B	0	M1
STR	50	0	0
SSL	50	0	0	96	48	4
STR	50	0	7
SSR	50	0	7	96	48	3
BRK	50	192	1
BRK	50	192	6
STR	50	288	2
SXL	50	288	2	96	96	5
STR	50	288	5
SXL	50	288	5	96	96	0
TAP	51	144	7
BRK	51	192	3
BRK	51	192	6
HLD	51	240	2	24
HLD	51	240	5	24
HLD	51	288	2	24
HLD	51	288	5	24
HLD	51	336	2	24
HLD	51	336	5	24
STR	52	0	2
SI_	52	0	2	96	48	4
STR	52	48	4
SLL	52	48	4	96	48	0
STR	52	96	2
SSL	52	96	2	96	96	6
TAP	52	288	3
BST	52	336	3
SI_	52	336	3	96	48	7
BST	52	336	7
SI_	52	336	7	96	48	3
TAP	53	144	0
TAP	53	144	6
TTP	53	192	0	C	1	M1
TTP	53	192	1	E	0	M1
TTP	53	192	5	E	0	M1
STR	53	288	7
SSR	53	288	7	96	96	3
STR	54	0	3
SSR	54	0	3	96	96	7
TAP	54	96	7
BRK	54	192	2
XTP	54	288	7
XTP	54	320	7
XTP	54	352	7
TAP	55	0	1
TAP	55	24	3
TAP	55	48	2
TAP	55	72	4
TAP	55	96	3
TAP	55	120	5
TAP	55	144	4
TAP	55	168	6
STR	55	192	7
SF_	55	192	7	96	48	3
TTP	55	288	7	B	0	M1
TTP	55	312	0	C	0	M1
TTP	55	336	3	B	0	M1
STR	56	0	0
SLL	56	0	0	96	96	4
STR	56	96	4
SLL	56	96	4	96	96	0
TAP	56	192	0
TAP	56	240	7
TAP	56	288	6
BRK	56	336	1
BRK	56	336	5
TAP	57	48	3
TAP	57	48	7
TAP	57	144	2
TAP	57	144	3
TTP	57	192	0	B	0	M1
TTP	57	192	0	C	1	M1
TTP	57	192	1	B	0	M1
TTP	57	192	4	B	0	M1
TTP	57	192	5	B	0	M1
TAP	57	288	6
TAP	57	288	7
STR	58	0	0
SI_	58	0	0	96	48	4
STR	58	48	4
SI_	58	48	4	96	48	0
STR	58	96	0
SCR	58	96	0	96	48	3
STR	58	144	3
SXL	58	144	3	96	240	0
TAP	58	192	6
HLD	58	288	7	24
HLD	58	336	7	24
HLD	59	0	7	24
HLD	59	48	7	24
HLD	59	96	7	24
BRK	59	144	7
TTP	59	192	6	E	0	M1
TTP	59	240	4	E	0	M1
TTP	59	288	2	E	0	M1
TTP	59	336	0	E	0	M1
STR	60	0	5
SI_	60	0	5	96	48	1
STR	60	48	1
SI_	60	48	1	96	48	3
STR	60	96	3
SLR	60	96	3	96	48	7
BRK	60	192	0
TAP	60	288	2
TAP	60	288	6
TAP	60	312	1
TAP	60	312	5
STR	60	336	0
SSL	60	336	0	96	96	4
STR	60	336	4
SSL	60	336	4	96	96	0
BRK	61	192	2
BRK	61	192	6
TAP	61	240	1
STR	61	288	1
SSL	61	288	1	96	96	5
TAP	61	336	1
STR	62	0	5
SSL	62	0	5	96	96	1
TAP	62	96	1
TAP	62	192	7
TAP	62	240	5
TAP	62	288	3
TAP	62	336	1
TAP	63	0	5
TTP	63	24	1	E	0	M1
TAP	63	48	5
TTP	63	72	3	E	0	M1
TAP	63	96	5
TTP	63	120	0	E	0	M1
TAP	63	144	5
TTP	63	168	4	E	0	M1
HLD	63	192	5	96
XST	63	336	3
SI_	63	336	3	96	48	7
XST	63	336	7
SI_	63	336	7	96	48	3
TAP	64	192	0
TAP	64	192	4
TAP	64	240	1
TAP	64	240	5
TAP	64	288	2
TAP	64	288	6
XST	64	336	3
SCL	64	336	3	96	1008	4
XTP	64	336	7
TTP	65	288	3	E	0	M1
TTP	65	336	4	E	0	M1
TTP	66	288	0	E	0	M1
TTP	66	336	7	E	0	M1
TTP	67	288	5	E	0	M1
TTP	67	336	4	E	0	M1
XTP	68	0	2
TAP	68	48	2
TAP	68	96	2
TAP	68	144	2
XTP	68	192	2
TAP	68	216	3
TAP	68	240	1
TAP	68	264	4
TAP	68	288	0
TAP	68	312	5
TAP	68	336	7
TAP	68	360	6
XTP	69	0	1
TAP	69	12	2
TAP	69	24	3
TAP	69	36	4
TAP	69	48	5
TAP	69	60	6
TAP	69	72	7
TAP	69	84	0
XTP	69	96	1
TAP	69	108	2
TAP	69	120	3
TAP	69	132	4
TAP	69	144	5
TAP	69	156	6
TAP	69	168	7
TAP	69	180	0
BRK	69	192	1
BRK	69	192	5
TTP	69	288	0	C	1	M1
TTP	69	288	2	E	0	M1
TTP	69	288	6	E	0	M1
XST	70	0	0
SCL	70	0	0	96	48	5
XTP	70	0	7
TAP	70	48	1
TAP	70	96	0
TAP	70	96	2
TAP	70	144	3
TAP	70	192	4
STR	70	192	5
SCL	70	192	5	96	48	2
TAP	70	240	6
TAP	70	288	5
TAP	70	288	7
TAP	70	336	0
STR	71	0	1
SCR	71	0	1	96	48	4
TAP	71	0	2
TAP	71	48	0
TAP	71	96	1
TAP	71	96	7
TAP	71	144	6
STR	71	192	4
SCR	71	192	4	96	48	7
TAP	71	192	5
TAP	71	240	3
TAP	71	288	2
TAP	71	288	4
TAP	71	336	1
TAP	72	0	0
STR	72	0	7
SCR	72	0	7	96	48	2
TAP	72	48	6
TAP	72	96	5
TAP	72	96	7
TAP	72	144	4
STR	72	192	2
SCR	72	192	2	96	48	5
TAP	72	192	3
TAP	72	240	1
TAP	72	288	0
TAP	72	288	2
TAP	72	336	7
TAP	73	0	5
STR	73	0	6
SCL	73	0	6	96	48	3
TAP	73	48	7
TAP	73	96	0
TAP	73	96	6
TAP	73	144	1
TAP	73	192	2
TAP	73	216	7
TAP	73	240	2
TAP	73	264	7
BRK	73	288	1
BRK	73	288	6
XTP	74	0	0
STR	74	0	7
SCR	74	0	7	96	48	2
TAP	74	48	6
TTP	74	96	5	E	0	M1
TAP	74	96	7
STR	74	192	2
SCR	74	192	2	96	48	5
TAP	74	192	3
TAP	74	240	1
TTP	74	288	0	E	0	M1
TAP	74	288	2
TAP	75	0	5
STR	75	0	6
SCL	75	0	6	96	48	3
TAP	75	48	7
TTP	75	96	1	E	0	M1
TAP	75	96	6
TAP	75	192	2
STR	75	192	3
SCL	75	192	3	96	48	0
TAP	75	240	4
TAP	75	288	3
TTP	75	288	6	E	0	M1
STR	76	0	0
SCL	76	0	0	96	48	5
TAP	76	0	7
TAP	76	48	1
TAP	76	96	0
TTP	76	96	3	E	0	M1
TAP	76	192	4
STR	76	192	5
SCL	76	192	5	96	48	2
TAP	76	240	6
TTP	76	288	0	E	0	M1
TAP	76	288	5
XTP	77	0	7
TAP	77	12	6
TAP	77	24	5
TAP	77	36	4
TAP	77	48	3
TAP	77	60	2
TAP	77	72	1
TAP	77	84	0
XTP	77	96	7
TAP	77	108	6
TAP	77	120	5
TAP	77	132	4
TAP	77	144	3
TAP	77	156	2
TAP	77	168	1
TAP	77	180	0
TAP	77	192	3
STR	77	192	7
SF_	77	192	7	96	48	3
BRK	77	288	7
STR	78	0	3
SCR	78	0	3	96	48	6
XTP	78	0	4
TAP	78	48	2
TTP	78	96	1	E	0	M1
TAP	78	96	3
TTP	78	144	0	E	0	M1
STR	78	192	6
SCR	78	192	6	96	48	1
TAP	78	192	7
TAP	78	240	5
TTP	78	288	5	E	0	M1
TAP	78	288	6
TTP	78	336	4	E	0	M1
TAP	79	0	1
STR	79	0	2
SCL	79	0	2	96	48	7
TAP	79	48	3
TAP	79	96	2
TTP	79	96	5	E	0	M1
TTP	79	144	6	E	0	M1
TAP	79	192	6
STR	79	192	7
SCL	79	192	7	96	48	4
TAP	79	240	0
TTP	79	288	2	E	0	M1
TAP	79	288	7
TTP	79	336	3	E	0	M1
TAP	80	0	3
STR	80	0	4
SCL	80	0	4	96	48	1
TAP	80	48	5
TAP	80	96	4
TTP	80	96	7	E	0	M1
TTP	80	144	0	E	0	M1
TAP	80	192	0
STR	80	192	1
SCL	80	192	1	96	48	6
TAP	80	240	2
TAP	80	288	1
TTP	80	288	3	E	0	M1
TTP	80	336	4	E	0	M1
STR	81	0	5
SCR	81	0	5	96	48	0
TAP	81	0	6
TAP	81	48	4
TTP	81	96	3	E	0	M1
TAP	81	96	5
TTP	81	144	2	E	0	M1
STR	81	192	0
SCR	81	192	0	96	48	3
TAP	81	192	1
TAP	81	240	7
TAP	81	288	0
TTP	81	288	6	E	0	M1
TTP	81	336	5	E	0	M1
XTP	82	0	3
TAP	82	24	4
TAP	82	48	3
TAP	82	72	4
XTP	82	96	2
TAP	82	120	4
TAP	82	144	3
TAP	82	168	4
XTP	82	192	1
TAP	82	216	4
TAP	82	240	3
TAP	82	264	4
XTP	82	288	0
TAP	82	312	4
TAP	82	336	3
TAP	82	360	4
XTP	83	0	7
TAP	83	24	4
TAP	83	48	3
TAP	83	72	4
XTP	83	96	6
TAP	83	120	4
TAP	83	144	3
TAP	83	168	4
XTP	83	192	5
TAP	83	216	4
TAP	83	240	3
TAP	83	264	4
XTP	83	288	1
TAP	83	312	4
TAP	83	336	3
TAP	83	360	4
XTP	84	0	2
TAP	84	24	5
TAP	84	48	3
TAP	84	72	4
XTP	84	96	1
TAP	84	120	6
TAP	84	144	3
TAP	84	168	4
XTP	84	192	0
TAP	84	216	7
TAP	84	240	3
TAP	84	264	4
XTP	84	288	1
TAP	84	312	6
TAP	84	336	3
TAP	84	360	4
XTP	85	0	1
TAP	85	24	5
TAP	85	48	2
TAP	85	72	6
XTP	85	96	3
TAP	85	120	7
TAP	85	144	4
TAP	85	168	0
XTP	85	192	1
XTP	85	192	5
TAP	85	208	0
TAP	85	208	4
TAP	85	224	3
TAP	85	224	7
TAP	85	240	2
TAP	85	240	6
TAP	85	256	1
TAP	85	256	5
TAP	85	272	0
TAP	85	272	4
TAP	85	288	7
TAP	85	304	6
TAP	85	320	5
TAP	85	336	4
TAP	85	352	3
TAP	85	368	2
BRK	86	0	1
BST	86	0	4
SCR	86	0	4	96	1344	3
TTP	86	240	7	B	0	M1
TTP	86	288	0	C	0	M1
TTP	86	336	3	B	0	M1
TTP	87	288	2	E	0	M1
TTP	87	336	3	E	0	M1
TTP	88	288	0	C	0	M1
TTP	88	336	5	E	0	M1
TTP	90	48	3	B	0	M1
TTP	90	60	2	B	0	M1
TTP	90	72	2	E	0	M1
TTP	91	120	4	E	0	M1
TTP	91	132	3	B	0	M1
TTP	91	144	2	B	0	M1
THO	92	336	0	1200	C	0	M1

T_REC_TAP	428
T_REC_BRK	26
T_REC_XTP	49
T_REC_HLD	77
T_REC_XHO	17
T_REC_STR	49
T_REC_BST	3
T_REC_XST	5
T_REC_TTP	106
T_REC_THO	4
T_REC_SLD	59
T_REC_ALL	823
T_NUM_TAP	637
T_NUM_BRK	29
T_NUM_HLD	98
T_NUM_SLD	59
T_NUM_ALL	823
T_JUDGE_TAP	666
T_JUDGE_HLD	160
T_JUDGE_SLD	59
T_JUDGE_ALL	885
TTM_EACHPAIRS	127
TTM_SCR_TAP	318500
TTM_SCR_BRK	75400
TTM_SCR_HLD	98000
TTM_SCR_SLD	88500
TTM_SCR_ALL	580400
TTM_SCR_S	560200
TTM_SCR_SS	577500
TTM_RAT_ACV	10050

