VERSION	0.00.00	1.03.00
FES_MODE	0
BPM_DEF	150.000	150.000	150.000	150.000
MET_DEF	4	4
RESOLUTION	384
CLK_DEF	384
COMPATIBLE_CODE	MA2

BPM	0	0	150.000
MET	0	0	4	4

BRK	2	0	1
BRK	2	0	6
TAP	2	96	1
TAP	2	192	1
TAP	2	192	5
TAP	2	288	1
TAP	3	0	1
TAP	3	0	4
TAP	3	96	1
TAP	3	192	1
TAP	3	192	3
HLD	3	288	1	672
TAP	4	0	2
TAP	4	96	2
TAP	4	192	4
TAP	4	288	4
TAP	5	0	6
TAP	5	96	6
TAP	5	192	0
TAP	5	288	2
TAP	5	288	7
TAP	6	0	0
TAP	6	0	5
TAP	6	96	4
TAP	6	192	3
TAP	6	192	6
TAP	6	288	2
TAP	7	0	1
TAP	7	0	4
TAP	7	96	0
TAP	7	192	2
TAP	7	192	7
HLD	7	288	6	672
TAP	8	0	5
TAP	8	96	5
TAP	8	192	3
TAP	8	288	3
TAP	9	0	1
TAP	9	96	1
TAP	9	192	7
STR	9	288	0
SI_	9	288	0	96	48	4
TAP	9	288	5
BRK	10	0	7
TAP	10	288	3
HLD	11	0	3	144
HLD	11	144	4	144
TAP	11	288	5
STR	12	0	5
SCL	12	0	5	96	192	2
TAP	12	0	6
TAP	13	0	1
STR	13	0	2
SCR	13	0	2	96	192	5
TAP	14	0	3
STR	14	0	4
SI_	14	0	4	96	192	7
TAP	14	288	0
HLD	15	0	0	144
HLD	15	144	7	144
STR	15	288	6
SCL	15	288	6	96	288	1
TTP	16	0	0	C	0	M1
STR	17	0	0
SF_	17	0	0	96	192	4
HLD	18	0	2	96
BRK	18	0	6
HLD	18	96	3	144
TAP	18	240	2
TAP	18	288	1
TAP	18	288	3
TAP	19	48	5
TAP	19	96	4
TAP	19	96	6
TAP	19	168	3
TAP	19	168	5
TAP	19	240	2
TAP	19	240	4
TAP	19	288	2
TAP	19	288	4
TAP	20	0	1
HLD	20	0	5	96
HLD	20	96	4	144
TAP	20	240	5
TAP	20	288	4
TAP	20	288	6
TAP	21	48	2
TAP	21	96	1
TAP	21	96	3
TAP	21	168	2
TAP	21	168	4
TAP	21	240	3
TAP	21	240	5
TAP	21	288	3
TAP	21	288	5
TAP	22	0	2
TAP	22	48	3
TAP	22	96	2
TAP	22	144	2
TAP	22	192	5
TAP	22	240	4
TAP	22	288	5
TAP	22	336	5
TAP	23	0	2
TAP	23	48	3
TAP	23	96	1
TAP	23	144	1
TAP	23	192	5
TAP	23	240	4
TAP	23	288	3
TAP	23	288	6
TAP	24	0	2
TAP	24	48	3
TAP	24	96	1
TAP	24	96	4
TAP	24	192	7
TAP	24	240	0
TAP	24	288	1
TAP	24	288	6
TAP	25	0	2
TAP	25	48	0
TAP	25	96	7
TAP	25	144	5
TAP	25	192	1
TAP	25	192	6
TTP	25	288	2	B	0	M1
TTP	25	288	3	B	0	M1
TTP	25	288	4	B	0	M1
TTP	25	288	5	B	0	M1
XHO	26	0	0	96
TAP	26	96	6
HLD	26	144	6	96
TAP	26	240	4
HLD	26	288	4	96
TAP	27	0	2
HLD	27	48	2	96
TAP	27	144	0
STR	27	192	0
SCR	27	192	0	96	48	3
TAP	27	288	5
HLD	28	0	7	96
TAP	28	96	1
HLD	28	144	1	96
STR	28	240	3
SUR	28	240	3	96	192	4
TAP	28	288	3
XTP	29	192	4
XTP	29	192	6
XTP	29	256	3
XTP	29	256	4
XTP	29	320	1
XTP	29	320	3
HLD	30	0	7	96
TAP	30	96	1
HLD	30	144	1	96
TAP	30	240	3
HLD	30	288	3	96
TAP	31	0	5
HLD	31	48	5	96
TAP	31	144	7
STR	31	192	7
SCL	31	192	7	96	48	4
TAP	31	288	2
HLD	32	0	0	96
TAP	32	96	2
HLD	32	144	2	96
TAP	32	240	4
HLD	32	288	4	96
TAP	33	0	6
HLD	33	48	6	96
STR	33	144	0
SSL	33	144	0	96	96	4
XHO	34	0	5	96
XTP	34	96	4
XTP	34	168	0
XTP	34	168	7
XTP	34	240	2
XTP	34	240	3
XTP	34	312	0
XTP	34	312	7
TAP	35	0	4
TAP	35	0	5
TAP	35	48	3
TAP	35	48	4
HLD	35	96	2	48
HLD	35	96	3	48
HLD	35	168	3	48
HLD	35	168	4	48
TAP	35	240	4
TAP	35	240	5
TAP	35	288	3
BRK	35	288	6
XHO	36	0	2	96
XTP	36	96	3
XTP	36	168	0
XTP	36	168	7
XTP	36	240	4
XTP	36	240	5
XTP	36	312	0
XTP	36	312	7
TAP	37	0	2
TAP	37	0	3
TAP	37	48	1
TAP	37	72	3
TAP	37	120	3
TAP	37	144	4
TAP	37	192	4
TAP	37	216	6
TAP	37	264	6
BRK	37	288	1
XHO	38	0	7	96
XTP	38	96	0
XTP	38	168	4
XTP	38	168	5
XTP	38	240	0
XTP	38	240	7
XTP	38	312	2
XTP	38	312	3
HLD	39	0	5	48
HLD	39	72	4	48
HLD	39	144	3	48
HLD	39	216	2	48
TTP	39	288	0	C	0	M1
BST	40	0	0
SXL	40	0	0	96	192	3
BST	40	0	7
SXR	40	0	7	96	192	4
STR	41	0	1
SI_	41	0	1	96	48	7
STR	41	96	5
SI_	41	96	5	96	48	3
STR	41	192	2
SI_	41	192	2	96	48	6
TAP	42	0	2
TAP	42	0	6
TAP	42	96	2
TAP	42	144	3
TAP	42	192	2
TTP	42	288	0	C	0	M1
TAP	42	288	2
TAP	43	0	2
TAP	43	0	6
TAP	43	96	2
TAP	43	144	3
TAP	43	192	2
TTP	43	288	0	C	0	M1
TAP	43	288	2
TAP	44	0	1
TAP	44	0	5
TAP	44	96	5
TAP	44	144	4
TAP	44	192	5
TTP	44	288	0	C	0	M1
TAP	44	288	5
TAP	45	0	1
TAP	45	0	5
TAP	45	96	5
TAP	45	144	4
TAP	45	192	5
TTP	45	288	0	C	0	M1
TAP	45	288	5
TAP	46	0	2
BRK	46	0	6
TAP	46	48	2
TAP	46	96	1
TAP	46	144	1
TAP	46	192	0
TTP	46	192	0	C	0	M1
TAP	46	240	0
TAP	46	288	7
TAP	46	336	7
TTP	47	0	0	C	0	M1
TAP	47	0	6
TAP	47	48	6
TAP	47	96	5
TAP	47	144	5
TTP	47	192	0	C	0	M1
TAP	47	192	4
TAP	47	240	4
STR	47	288	3
SCL	47	288	3	96	144	4
TAP	47	336	3
XTP	48	192	2
XTP	48	192	3
XTP	48	264	0
XTP	48	264	7
XTP	48	336	4
XTP	48	336	5
XHO	49	0	4	288
XTP	49	0	5
STR	49	288	3
SSR	49	288	3	96	144	7
STR	50	192	3
SCL	50	192	3	96	192	4
HLD	50	192	7	336
TAP	51	144	3
TAP	51	192	0
TAP	51	192	4
TTP	51	288	0	C	0	M1
TTP	51	288	1	B	0	M1
TTP	51	288	5	B	0	M1
TAP	52	0	3
TAP	52	0	7
TAP	52	96	0
STR	52	96	4
SI_	52	96	4	96	48	0
TAP	52	192	7
TAP	52	288	1
TAP	52	288	7
HLD	52	336	1	48
HLD	52	336	7	48
HLD	53	48	0	48
HLD	53	48	6	48
STR	53	144	3
SLL	53	144	3	96	96	4
STR	53	144	4
SLR	53	144	4	96	96	3
TAP	53	192	3
TAP	53	192	4
TAP	54	0	1
TAP	54	0	6
TAP	54	96	0
TAP	54	96	1
TAP	54	192	6
STR	54	192	7
SUR	54	192	7	96	48	3
TAP	55	0	2
STR	55	0	3
SUR	55	0	3	96	48	7
STR	55	192	1
SCL	55	192	1	96	48	6
STR	55	192	5
SCL	55	192	5	96	48	2
HLD	56	0	4	96
TAP	56	0	5
HLD	56	96	3	96
TAP	56	192	2
TAP	56	240	2
TAP	56	288	3
TAP	56	336	1
TAP	56	336	4
TAP	57	48	3
TAP	57	48	6
TAP	57	144	0
TAP	57	144	7
STR	57	192	0
SCR	57	192	0	96	48	3
STR	57	192	7
SCL	57	192	7	96	48	4
TAP	58	0	2
TAP	58	0	5
TAP	58	96	1
HLD	58	96	3	96
HLD	58	192	4	96
TAP	58	288	6
TAP	58	336	7
TAP	59	0	0
TAP	59	48	1
TAP	59	96	2
TAP	59	96	5
STR	59	192	3
SV_	59	192	3	96	48	1
STR	59	192	7
SXR	59	192	7	96	48	5
STR	60	0	0
SXL	60	0	0	96	48	2
STR	60	0	4
SV_	60	0	4	96	48	6
HLD	60	192	3	96
HLD	60	192	7	96
TAP	60	336	3
TAP	60	336	7
XTP	61	48	0
XTP	61	48	4
XTP	61	120	1
XTP	61	120	5
XST	61	192	2
SV_	61	192	2	96	48	1
XST	61	192	6
SV_	61	192	6	96	48	5
TAP	62	0	3
TAP	62	0	4
TAP	62	96	0
TAP	62	96	7
TAP	62	192	1
TAP	62	240	3
TAP	62	288	4
HLD	62	336	2	96
HLD	62	336	6	96
STR	63	96	2
SI_	63	96	2	96	48	7
STR	63	96	6
SI_	63	96	6	96	48	3
HLD	63	336	0	240
STR	63	336	4
SUL	63	336	4	96	144	3
TAP	64	240	0
TAP	64	240	4
TAP	64	288	1
TAP	64	288	5
STR	64	336	2
SUL	64	336	2	96	288	5
STR	64	336	6
SUL	64	336	6	96	288	1
HLD	66	0	3	384
HLD	67	0	4	384
HLD	68	0	5	96
HLD	68	96	6	96
HLD	68	192	7	96
HLD	68	288	0	96
HLD	69	0	1	96
HLD	69	96	2	96
STR	69	192	3
SF_	69	192	3	96	48	7
BRK	70	0	1
BRK	70	0	5
TAP	70	96	3
TAP	70	96	7
TAP	70	192	1
TAP	70	192	5
TAP	70	240	4
TAP	70	288	3
TAP	70	288	6
TAP	70	336	2
TAP	71	0	1
STR	71	0	7
SI_	71	0	7	96	48	3
TAP	71	96	3
TAP	71	192	1
TAP	71	192	5
TAP	71	240	4
TAP	71	288	3
TAP	71	288	7
TAP	71	336	2
TAP	72	0	1
STR	72	0	5
SI_	72	0	5	96	48	0
XTP	72	96	1
XTP	72	144	1
TAP	72	192	2
STR	72	192	7
SI_	72	192	7	96	48	4
XTP	72	288	2
XTP	72	336	2
TAP	73	0	1
STR	73	0	3
SI_	73	0	3	96	48	6
XTP	73	96	1
XTP	73	144	1
TAP	73	192	0
STR	73	192	5
SUR	73	192	5	96	96	7
TTP	73	288	0	C	1	M1
TAP	74	0	1
TAP	74	48	2
TAP	74	96	3
TAP	74	96	5
TAP	74	144	4
HLD	74	192	1	96
TAP	74	192	3
TAP	74	288	2
TAP	74	336	3
TAP	75	0	2
HLD	75	0	4	96
TAP	75	96	5
TAP	75	144	6
TAP	75	192	5
HLD	75	192	7	96
TAP	75	288	0
TAP	75	336	1
TAP	76	0	0
HLD	76	0	2	96
TAP	76	96	1
TAP	76	144	2
TAP	76	192	3
HLD	76	192	4	96
TAP	76	288	0
TAP	76	336	1
TAP	76	336	5
TAP	77	0	2
TAP	77	0	6
TAP	77	48	3
TAP	77	48	7
STR	77	96	0
SCL	77	96	0	96	48	5
STR	77	96	4
SCL	77	96	4	96	48	1
TTP	77	288	0	B	0	M1
TTP	77	288	0	C	1	M1
TTP	77	288	4	B	0	M1
BRK	78	0	2
BRK	78	0	6
TAP	78	96	0
TAP	78	96	4
TAP	78	192	2
TAP	78	192	6
TAP	78	240	3
TAP	78	288	1
TAP	78	288	4
TAP	78	336	5
STR	79	0	0
SI_	79	0	0	96	48	4
TAP	79	0	6
TAP	79	96	4
TAP	79	192	2
TAP	79	192	6
TAP	79	240	3
TAP	79	288	0
TAP	79	288	4
TAP	79	336	5
STR	80	0	2
SI_	80	0	2	96	48	7
TAP	80	0	6
XTP	80	96	6
XTP	80	144	6
STR	80	192	0
SI_	80	192	0	96	48	3
TAP	80	192	5
XTP	80	288	5
XTP	80	336	5
STR	81	0	4
SI_	81	0	4	96	48	1
TAP	81	0	6
XTP	81	96	6
XTP	81	144	6
STR	81	192	2
SUL	81	192	2	96	96	0
TAP	81	192	7
TTP	81	288	0	C	1	M1
TAP	82	0	7
TAP	82	48	6
TAP	82	96	4
TAP	82	96	5
TAP	82	144	1
TAP	82	192	2
TAP	82	192	3
TAP	82	240	6
TAP	82	288	4
TAP	82	288	5
TAP	82	336	1
TAP	83	0	2
TAP	83	0	3
TAP	83	48	7
TAP	83	96	4
TAP	83	96	5
TAP	83	144	0
TAP	83	192	2
TAP	83	192	3
TAP	83	240	7
TAP	83	288	4
TAP	83	288	5
TAP	83	336	0
TAP	84	0	2
TAP	84	24	3
TAP	84	48	2
TAP	84	96	5
TAP	84	120	4
TAP	84	144	5
TAP	84	192	2
TAP	84	216	3
TAP	84	240	1
TAP	84	288	5
TAP	84	312	4
TAP	84	336	6
TAP	85	0	0
TAP	85	24	7
TAP	85	48	0
TAP	85	72	7
XST	85	96	0
SCR	85	96	0	96	144	7
XST	85	120	7
SUR	85	120	7	96	120	0
XTP	85	144	0
XTP	85	168	7
TTP	86	0	0	C	1	M1
TTP	86	0	2	B	0	M1
TTP	86	0	3	B	0	M1
TTP	86	0	4	B	0	M1
TTP	86	0	5	B	0	M1
TTP	86	240	0	E	0	M1
TTP	86	288	0	C	0	M1
TTP	86	336	4	E	0	M1
TTP	87	288	6	E	0	M1
TTP	87	336	5	E	0	M1
TTP	88	312	2	E	0	M1
TTP	88	360	3	E	0	M1
TTP	90	48	4	B	0	M1
TTP	91	144	3	B	0	M1
STR	92	336	5
SCL	92	336	5	96	1488	2

T_REC_TAP	321
T_REC_BRK	11
T_REC_XTP	52
T_REC_HLD	58
T_REC_XHO	5
T_REC_STR	48
T_REC_BST	2
T_REC_XST	4
T_REC_TTP	35
T_REC_THO	0
T_REC_SLD	54
T_REC_ALL	590
T_NUM_TAP	460
T_NUM_BRK	13
T_NUM_HLD	63
T_NUM_SLD	54
T_NUM_ALL	590
T_JUDGE_TAP	473
T_JUDGE_HLD	168
T_JUDGE_SLD	54
T_JUDGE_ALL	695
TTM_EACHPAIRS	134
TTM_SCR_TAP	230000
TTM_SCR_BRK	33800
TTM_SCR_HLD	63000
TTM_SCR_SLD	81000
TTM_SCR_ALL	407800
TTM_SCR_S	394350
TTM_SCR_SS	406500
TTM_RAT_ACV	10031

